[MINI Super-HQ] Frozen II (2019) ผจญภัยปริศนาราชินีหิมะ ภาค 2 [1080p] [พากย์ไทย 5.1 + เสียงอังกฤษ DTS] [บรรยายไทย + อังกฤษ] [เสียงไทย + ซับไทย] [PANDAFILE]

0

โหลดหนัง Frozen II (2019) ผจญภัยปริศนาราชินีหิมะ ภาค 2

Frozen II (2019) 1h 43min | Animation, Adventure, Comedy | 22 November 2019 (USA) Summary: Anna, Elsa, Kristoff, Olaf and Sven leave Arendelle to travel to an ancient, autumn-bound forest of an enchanted land. They set out to find the origin of Elsa's powers in order to save their kingdom.
Countries: USALanguages: English

เรื่องย่อ Frozen II (2019) ผจญภัยปริศนาราชินีหิมะ ภาค 2
ทำไมเอลซ่าถึงเกิดมาพร้อมกับพลังวิเศษ? คำตอบกำลังเรียกหาเธอและกำลังคุกคามอาณาจักรของเธอเธอจึงเริ่มการเดินทางสุดอันตรายแต่แฝงไว้ด้วยความน่าพิศวง ไปกับ อันนา, คริสตอฟฟ์, โอลาฟ และสเฟน ใน “โฟรเซ่น-ผจญภัยแดนคำสาปราชินีหิมะ” เอลซ่ากลัวว่าพลังของเธอรุนแรงไปสำหรับโลกใบนี้ “โฟรเซ่น 2 – ผจญภัยปริศนาราชินีหิมะ” เธอเพียงได้แค่หวังว่าพลังของเธอจะรุนแรงพอ จากทีมผู้สร้างเจ้าของรางวัลออสการ์ ผู้กำกับ เจนนิเฟอร์ ลี และคริส บัค ผู้อำนวยการสร้าง ปีเตอร์ เดล เวโค่ และผู้เขียนเพลง คริสเทน แอนเดอร์สัน-โลเปซ และโรเบิร์ต โลเปซ และนักแสดงผู้ให้เสียงพากย์ อิดิน่า เมนเซล คริสเทน เบลล์ โจนาธาน กรอฟฟ์, และ จอช แกด “โฟรเซ่น 2-ผจญภัยปริศนาราชินีหิมะ” จากวอลท์ ดิสนีย์ แอนิเมชั่น สตูดิโอส์!!!

Complete name : [MINI Super-HQ]_Frozen.II.2019.1080p.BrRip.DTS.x264.One2loadup.com.mkv
Format : Matroska
Format version : Version 4
File size : 3.94 GiB
Duration : 1 h 43 min
Overall bit rate : 5 446 kb/s
Movie name : [MINI Super-HQ]_Frozen.II.2019.1080p.BrRip.DTS.x264.One2loadup.com
Encoded date : UTC 2010-02-22 21:41:31
Writing application : mkvmerge v5.9.0 (‘On The Loose’) built on Dec 9 2012 15:37:01
Writing library : libebml v1.3.0 + libmatroska v1.4.0

Video
ID : 1
Format : AVC
Format/Info : Advanced Video Codec
Format profile : [email protected]
Format settings : CABAC / 4 Ref Frames
Format settings, CABAC : Yes
Format settings, ReFrames : 4 frames
Codec ID : V_MPEG4/ISO/AVC
Duration : 1 h 43 min
Bit rate : 4 150 kb/s
Width : 1 920 pixels
Height : 804 pixels
Display aspect ratio : 2.40:1
Frame rate mode : Constant
Frame rate : 23.976 (24000/1001) FPS
Color space : YUV
Chroma subsampling : 4:2:0
Bit depth : 8 bits
Scan type : Progressive
Bits/(Pixel*Frame) : 0.112
Stream size : 3.04 GiB (77%)
Title : [MINI Super-HQ]_Frozen.II.2019.1080p.BrRip.DTS.x264.One2loadup.com
Writing library : x264 core 146 r2538 121396c
Encoding settings : cabac=1 / ref=5 / deblock=1:-3:-3 / analyse=0x3:0x133 / me=tesa / subme=11 / psy=1 / psy_rd=0.40:0.00 / mixed_ref=1 / me_range=48 / chroma_me=1 / trellis=2 / 8x8dct=1 / cqm=0 / deadzone=21,11 / fast_pskip=1 / chroma_qp_offset=-2 / threads=54 / lookahead_threads=4 / sliced_threads=0 / nr=0 / decimate=1 / interlaced=0 / bluray_compat=1 / constrained_intra=0 / bframes=3 / b_pyramid=1 / b_adapt=2 / b_bias=0 / direct=3 / weightb=1 / open_gop=0 / weightp=1 / keyint=250 / keyint_min=1 / scenecut=40 / intra_refresh=0 / rc_lookahead=60 / rc=2pass / mbtree=1 / bitrate=4150 / ratetol=1.0 / qcomp=0.60 / qpmin=0 / qpmax=69 / qpstep=4 / cplxblur=20.0 / qblur=0.5 / ip_ratio=1.40 / aq=1:1.30
Language : English
Default : Yes
Forced : No

Audio #1
ID : 2
Format : AC-3
Format/Info : Audio Coding 3
Commercial name : Dolby Digital
Codec ID : A_AC3
Duration : 1 h 43 min
Bit rate mode : Constant
Bit rate : 384 kb/s
Channel(s) : 6 channels
Channel layout : L R C LFE Ls Rs
Sampling rate : 48.0 kHz
Frame rate : 31.250 FPS (1536 SPF)
Bit depth : 16 bits
Compression mode : Lossy
Stream size : 285 MiB (7%)
Title : Thai Master 5.1
Language : Thai
Service kind : Complete Main
Default : Yes
Forced : Yes

Audio #2
ID : 3
Format : DTS
Format/Info : Digital Theater Systems
Codec ID : A_DTS
Duration : 1 h 43 min
Bit rate mode : Constant
Bit rate : 755 kb/s
Channel(s) : 6 channels
Channel layout : C L R Ls Rs LFE
Sampling rate : 48.0 kHz
Frame rate : 93.750 FPS (512 SPF)
Bit depth : 24 bits
Compression mode : Lossy
Stream size : 559 MiB (14%)
Title : English DTS
Language : English
Default : No
Forced : No

Text #1
ID : 4
Format : VobSub
Codec ID : S_VOBSUB
Codec ID/Info : Picture based subtitle format used on DVDs
Title : Thai 720p
Language : Thai
Default : No
Forced : No

Text #2
ID : 5
Format : VobSub
Codec ID : S_VOBSUB
Codec ID/Info : Picture based subtitle format used on DVDs
Title : Thai 1080p
Language : Thai
Default : Yes
Forced : Yes

Text #3
ID : 6
Format : VobSub
Codec ID : S_VOBSUB
Codec ID/Info : Picture based subtitle format used on DVDs
Title : Thai 1080p Yellow
Language : Thai
Default : No
Forced : No

Text #4
ID : 7
Format : VobSub
Codec ID : S_VOBSUB
Codec ID/Info : Picture based subtitle format used on DVDs
Title : Thai 1080p Out
Language : Thai
Default : No
Forced : No

Text #5
ID : 8
Format : VobSub
Codec ID : S_VOBSUB
Codec ID/Info : Picture based subtitle format used on DVDs
Title : Thai 1080p BIG
Language : Thai
Default : No
Forced : No

Text #6
ID : 9
Format : VobSub
Codec ID : S_VOBSUB
Codec ID/Info : Picture based subtitle format used on DVDs
Title : Thai 1080p Out [BIG]
Language : Thai
Default : No
Forced : No

Text #7
ID : 10
Format : PGS
Codec ID : S_HDMV/PGS
Codec ID/Info : Picture based subtitle format used on BDs/HD-DVDs
Title : Thai PGS
Language : Thai
Default : No
Forced : No

Text #8
ID : 11
Format : PGS
Codec ID : S_HDMV/PGS
Codec ID/Info : Picture based subtitle format used on BDs/HD-DVDs
Title : Thai PGS Yellow
Language : Thai
Default : No
Forced : No

Text #9
ID : 12
Format : PGS
Codec ID : S_HDMV/PGS
Codec ID/Info : Picture based subtitle format used on BDs/HD-DVDs
Title : Thai PGS Out
Language : Thai
Default : No
Forced : No

Text #10
ID : 13
Format : PGS
Codec ID : S_HDMV/PGS
Codec ID/Info : Picture based subtitle format used on BDs/HD-DVDs
Title : English
Language : English
Default : No
Forced : No

Menu
00:00:00.000 : en:1
00:05:41.758 : en:2
00:08:26.881 : en:3
00:15:00.566 : en:4
00:16:28.820 : en:5
00:21:24.282 : en:6
00:25:44.417 : en:7
00:29:08.078 : en:8
00:33:44.186 : en:9
00:40:26.379 : en:10
00:44:37.087 : en:11
00:47:41.478 : en:12
00:53:03.675 : en:13
00:55:26.401 : en:14
01:02:35.872 : en:15
01:09:56.686 : en:16
01:13:47.540 : en:17
01:19:25.793 : en:18
01:24:27.302 : en:19
01:31:16.419 : en:20

DOWNLOAD


PART01 |||| PART02 |||| PART03 |||| PART04

PART01 |||| PART02 |||| PART03 |||| PART04

PART01 |||| PART02 |||| PART03 |||| PART04

PART01 |||| PART02 |||| PART03 |||| PART04

PART01 |||| PART02 |||| PART03 |||| PART04



แจ้งหนังเสีย หรือโหลดไม่ได้ ทั้งลิ้งฟรีและ vip สามารถกดที่รูปด้านบนนี้ได้เลย

: Disable Comments
%d bloggers like this: