[MINI Super-HQ] Four Brothers (2005) 4 ระห่ำดับแค้น [1080p] [พากย์ไทย 5.1 + เสียงอังกฤษ DTS] [บรรยายไทย + อังกฤษ] [เสียงไทย + ซับไทย] [USERLOAD]

0

โหลดหนัง Four Brothers (2005) 4 ระห่ำดับแค้น

Four Brothers (2005) 109min | Action, Crime, Drama, Mystery, Thriller | July 1, 2005 (United States) Summary: When their adoptive mother is gunned down in a store robbery the 'four brothers' investigate the murder for themselves & look for the killers, but not all is what it seems.
Countries: United StatesLanguages: English

เรื่องย่อ Four Brothers (2005) 4 ระห่ำดับแค้น

หลังจากแม่ที่เลี้ยงดูอุปถัมภ์พวกเขาทั้งสี่คน มาถูกฆ่าตายในระหว่างที่ร้านขายของชำโดนปล้น พี่น้องตระกูลเมอร์เซอร์อันประกอบไปด้วย บ๊อบบี้ เมอร์เซอร์ (มาร์ค วอห์ลเบิร์ก) ชายหนุ่มเลือดร้อน, แองเจล เมอร์เซอร์ (ไทรีส กิ๊บสัน) ขวัญใจสาว ๆ, เจเรเมียห์ เมอร์เซอร์ (อังเดร เบนจามิน) นักธุรกิจที่รักครอบครัว และไอ้หนุ่มฮาร์ดร็อค แจ็ค เมอร์เซอร์ (การ์เร็ตต์ เฮดลันด์) จึงได้กลับมารวมตัวกันอีกครั้ง เพื่อจัดการกับงานศพ และทำให้ความผิดพลาดอันเนื่องมาจากการตายของแม่ของพวกเขา ได้รับการแก้ไข สิ่งที่ทำให้เหล่าพี่น้องกลุ่มนี้เป็นหนึ่งก็คือหลักคำสอนที่แม่ของพวกเขาได้ฝังรากลึกไว้ให้และสี่พี่น้องรู้ว่า พวกเขาผูกพันกันด้วยพันธะ ที่เข้มข้นยิ่งกว่าสายเลือด!!!

Complete name : [MINI Super-HQ]_Four.Brothers.2005.1080p.BrRip.DTS.x264.One2loadup.com.mkv
Format : Matroska
Format version : Version 4
File size : 4.28 GiB
Duration : 1 h 48 min
Overall bit rate : 5 633 kb/s
Movie name : [MINI Super-HQ]_Four.Brothers.2005.1080p.BrRip.DTS.x264.One2loadup.com
Encoded date : UTC 2021-08-09 14:12:35
Writing application : mkvmerge v9.8.0 (‘Kuglblids’) 64bit
Writing library : libebml v1.3.4 + libmatroska v1.4.5

Video
ID : 1
Format : AVC
Format/Info : Advanced Video Codec
Format profile : [email protected]
Format settings : CABAC / 5 Ref Frames
Format settings, CABAC : Yes
Format settings, Reference : 5 frames
Codec ID : V_MPEG4/ISO/AVC
Duration : 1 h 48 min
Bit rate : 4 000 kb/s
Width : 1 920 pixels
Height : 816 pixels
Display aspect ratio : 2.35:1
Frame rate mode : Constant
Frame rate : 23.976 (24000/1001) FPS
Color space : YUV
Chroma subsampling : 4:2:0
Bit depth : 8 bits
Scan type : Progressive
Bits/(Pixel*Frame) : 0.106
Stream size : 3.04 GiB (71%)
Title : [MINI Super-HQ]_Four.Brothers.2005.1080p.BrRip.DTS.x264.One2loadup.com
Writing library : x264 core 157 r2935 545de2f
Encoding settings : cabac=1 / ref=5 / deblock=1:0:0 / analyse=0x1:0x131 / me=tesa / subme=11 / psy=1 / psy_rd=1.00:0.00 / mixed_ref=1 / me_range=24 / chroma_me=1 / trellis=2 / 8x8dct=0 / cqm=0 / deadzone=21,11 / fast_pskip=0 / chroma_qp_offset=-2 / threads=12 / lookahead_threads=3 / sliced_threads=0 / nr=0 / decimate=1 / interlaced=0 / bluray_compat=0 / constrained_intra=0 / bframes=16 / b_pyramid=2 / b_adapt=2 / b_bias=0 / direct=3 / weightb=1 / open_gop=0 / weightp=2 / keyint=240 / keyint_min=24 / scenecut=40 / intra_refresh=0 / rc_lookahead=60 / rc=2pass / mbtree=1 / bitrate=4000 / ratetol=1.0 / qcomp=0.60 / qpmin=0 / qpmax=69 / qpstep=4 / cplxblur=20.0 / qblur=0.5 / vbv_maxrate=50000 / vbv_bufsize=62500 / nal_hrd=none / filler=0 / ip_ratio=1.40 / aq=1:1.00
Language : English
Default : Yes
Forced : No
Color range : Limited
Color primaries : BT.709
Transfer characteristics : BT.709
Matrix coefficients : BT.709

Audio #1
ID : 2
Format : AC-3
Format/Info : Audio Coding 3
Commercial name : Dolby Digital
Codec ID : A_AC3
Duration : 1 h 48 min
Bit rate mode : Constant
Bit rate : 640 kb/s
Channel(s) : 6 channels
Channel layout : L R C LFE Ls Rs
Sampling rate : 48.0 kHz
Frame rate : 31.250 FPS (1536 SPF)
Compression mode : Lossy
Stream size : 498 MiB (11%)
Title : Thai 5.1 Master
Language : Thai
Service kind : Complete Main
Default : Yes
Forced : Yes

Audio #2
ID : 3
Format : DTS
Format/Info : Digital Theater Systems
Codec ID : A_DTS
Duration : 1 h 48 min
Bit rate mode : Constant
Bit rate : 755 kb/s
Channel(s) : 6 channels
Channel layout : C L R Ls Rs LFE
Sampling rate : 48.0 kHz
Frame rate : 93.750 FPS (512 SPF)
Bit depth : 24 bits
Compression mode : Lossy
Stream size : 587 MiB (13%)
Title : English DTS-5.1
Language : English
Default : No
Forced : No

Text #1
ID : 4
Format : PGS
Codec ID : S_HDMV/PGS
Codec ID/Info : Picture based subtitle format used on BDs/HD-DVDs
Duration : 1 h 45 min
Bit rate : 51.3 kb/s
Count of elements : 3254
Stream size : 38.8 MiB (1%)
Title : Thai 1080p PGS
Language : Thai
Default : Yes
Forced : Yes

Text #2
ID : 5
Format : VobSub
Codec ID : S_VOBSUB
Codec ID/Info : Picture based subtitle format used on DVDs
Duration : 1 h 45 min
Bit rate : 12.3 kb/s
Count of elements : 1625
Stream size : 9.25 MiB (0%)
Title : Thai 1080p
Language : Thai
Default : No
Forced : No

Text #3
ID : 6
Format : PGS
Codec ID : S_HDMV/PGS
Codec ID/Info : Picture based subtitle format used on BDs/HD-DVDs
Duration : 1 h 45 min
Bit rate : 50.8 kb/s
Count of elements : 3254
Stream size : 38.4 MiB (1%)
Title : Thai 1080p Out PGS
Language : Thai
Default : No
Forced : No

Text #4
ID : 7
Format : VobSub
Codec ID : S_VOBSUB
Codec ID/Info : Picture based subtitle format used on DVDs
Duration : 1 h 45 min
Bit rate : 12.1 kb/s
Count of elements : 1625
Stream size : 9.17 MiB (0%)
Title : Thai 1080p Out
Language : Thai
Default : No
Forced : No

Text #5
ID : 8
Format : VobSub
Codec ID : S_VOBSUB
Codec ID/Info : Picture based subtitle format used on DVDs
Duration : 1 h 45 min
Bit rate : 16.8 kb/s
Count of elements : 1625
Stream size : 12.7 MiB (0%)
Title : Thai 1080p Big [Yellow]
Language : Thai
Default : No
Forced : No

Text #6
ID : 9
Format : PGS
Codec ID : S_HDMV/PGS
Codec ID/Info : Picture based subtitle format used on BDs/HD-DVDs
Duration : 1 h 44 min
Bit rate : 50.5 kb/s
Count of elements : 3266
Stream size : 37.6 MiB (1%)
Title : English PGS
Language : English
Default : No
Forced : No

Text #7
ID : 10
Format : PGS
Codec ID : S_HDMV/PGS
Codec ID/Info : Picture based subtitle format used on BDs/HD-DVDs
Duration : 1 h 44 min
Bit rate : 50.5 kb/s
Count of elements : 3266
Stream size : 37.6 MiB (1%)
Title : English PGS [SDH]
Language : English
Default : No
Forced : No

Menu
00:00:00.000 : en: Miss Evelyn
00:07:21.524 : en: Straight-Ish
00:14:01.758 : en: La Vida Loca
00:20:08.290 : en: Can’t All Be Saints
00:28:59.988 : en: Upstanding Citizens
00:34:45.125 : en: The Witness
00:39:55.852 : en: Shooters
00:47:55.081 : en: Victor Sweet
00:53:31.750 : en: Chasing Down Leads
01:00:06.603 : en: Betrayals
01:08:35.862 : en: House Call
01:16:32.546 : en: Dirty Uniform
01:25:20.115 : en: Waiting for the Call
01:32:06.396 : en: Take on the Champ
01:41:19.824 : en: Back Home

DOWNLOAD


PART01 |||| PART02 |||| PART03 |||| PART04 |||| PART05

PART01 |||| PART02 |||| PART03 |||| PART04 |||| PART05

PART01 |||| PART02 |||| PART03 |||| PART04 |||| PART05

PART01 |||| PART02 |||| PART03 |||| PART04 |||| PART05

PART01 |||| PART02 |||| PART03 |||| PART04 |||| PART05


Leave A Reply

อีเมล์ของคุณจะไม่แสดงให้เห็น Your email address will not be published.

%d bloggers like this: