[MINI Super-HQ] Forrest Gump (1994) ฟอร์เรสท์ กัมพ์ อัจฉริยะปัญญานิ่ม [1080p] [พากย์ไทย 5.1 + เสียงอังกฤษ DTS] [บรรยายไทย + อังกฤษ] [เสียงไทย + ซับไทย] [OPENLOAD]

0

Forrest Gump (1994)

โหลดหนัง Forrest Gump (1994) ฟอร์เรสท์ กัมพ์ อัจฉริยะปัญญานิ่ม

Forrest Gump (1994) 2h 22min | Drama, Romance | 22 September 1994 (Netherlands) Summary: The presidencies of Kennedy and Johnson, the events of Vietnam, Watergate, and other history unfold through the perspective of an Alabama man with an IQ of 75.
Countries: USALanguages: English

เรื่องย่อ Forrest Gump (1994) ฟอร์เรสท์ กัมพ์ อัจฉริยะปัญญานิ่ม

ในช่วงสามทศวรรษแห่งความโกลาหล ฟอร์เรสท์ (ทอม แฮงค์) ดำเนินชีวิตผ่านกระแสช่วงต่างๆที่ผันเขาจากคนร่างกายพิการไปเป็นดาราอเมริกันฟุตบอล จากวีรบุรุษในสงครามเวียดนามเป็นเศรษฐีธุรกิจเรือกุ้ง จากเกียรติทำเนียบขาวไปสู่อ้อมกอดของผู้ที่เขามีใจรักจริง ฟอร์เรสท์คือลักษณะรูปธรรมแห่งยุค คือความไร้เดียงสาในดินแดนอเมริกา จิตใจของเขาตระหนักต่อสิ่งที่ไอคิวอันจำกัดของตัวเองไม่อำนวย ขอบข่ายศิลธรรมของเขาไม่เคยคลอนแคลน ชัยชนะทั้งหลายของเขากลายเป็นแรงบันดาลใจแก่เราทุกคน

Complete name : [MINI Super-HQ]_Forest.Gump.1994.1080p.BluRay.DTS.x264.One2loadup.com.mkv
Format : Matroska
Format version : Version 4
File size : 5.34 GiB
Duration : 2 h 22 min
Overall bit rate : 5 379 kb/s
Movie name : [MINI Super-HQ]_Forest.Gump.1994.1080p.BluRay.DTS.x264.One2loadup.com
Encoded date : UTC 2019-10-05 09:16:48
Writing application : mkvmerge v35.0.0 (‘All The Love In The World’) 64-bit
Writing library : libebml v1.3.9 + libmatroska v1.5.2

Video
ID : 1
Format : AVC
Format/Info : Advanced Video Codec
Format profile : [email protected]
Format settings : CABAC / 5 Ref Frames
Format settings, CABAC : Yes
Format settings, ReFrames : 5 frames
Codec ID : V_MPEG4/ISO/AVC
Duration : 2 h 22 min
Bit rate : 3 380 kb/s
Width : 1 920 pixels
Height : 816 pixels
Display aspect ratio : 2.35:1
Frame rate mode : Constant
Frame rate : 23.976 (24000/1001) FPS
Color space : YUV
Chroma subsampling : 4:2:0
Bit depth : 8 bits
Scan type : Progressive
Bits/(Pixel*Frame) : 0.090
Stream size : 3.36 GiB (63%)
Title : [MINI Super-HQ]_Forest.Gump.1994.1080p.BluRay.DTS.x264.One2loadup.com
Writing library : x264 core 148 r2638 7599210
Encoding settings : cabac=1 / ref=5 / deblock=1:-2:-2 / analyse=0x3:0x133 / me=umh / subme=11 / psy=1 / psy_rd=1.00:0.25 / mixed_ref=1 / me_range=32 / chroma_me=1 / trellis=2 / 8x8dct=1 / cqm=0 / deadzone=21,11 / fast_pskip=0 / chroma_qp_offset=-4 / threads=12 / lookahead_threads=1 / sliced_threads=0 / nr=0 / decimate=1 / interlaced=0 / bluray_compat=0 / constrained_intra=0 / bframes=4 / b_pyramid=2 / b_adapt=2 / b_bias=0 / direct=3 / weightb=1 / open_gop=0 / weightp=2 / keyint=240 / keyint_min=23 / scenecut=40 / intra_refresh=0 / rc_lookahead=60 / rc=2pass / mbtree=1 / bitrate=3380 / ratetol=1.0 / qcomp=0.60 / qpmin=0 / qpmax=69 / qpstep=4 / cplxblur=20.0 / qblur=0.5 / ip_ratio=1.40 / aq=1:1.00
Default : Yes
Forced : No

Audio #1
ID : 2
Format : DTS
Format/Info : Digital Theater Systems
Codec ID : A_DTS
Duration : 2 h 22 min
Bit rate mode : Constant
Bit rate : 1 509 kb/s
Channel(s) : 6 channels
Channel layout : C L R Ls Rs LFE
Sampling rate : 48.0 kHz
Frame rate : 93.750 FPS (512 SPF)
Bit depth : 24 bits
Compression mode : Lossy
Stream size : 1.50 GiB (28%)
Title : English DTS
Language : English
Default : Yes
Forced : No

Audio #2
ID : 3
Format : AC-3
Format/Info : Audio Coding 3
Commercial name : Dolby Digital
Codec ID : A_AC3
Duration : 2 h 22 min
Bit rate mode : Constant
Bit rate : 448 kb/s
Channel(s) : 6 channels
Channel layout : L R C LFE Ls Rs
Sampling rate : 48.0 kHz
Frame rate : 31.250 FPS (1536 SPF)
Bit depth : 16 bits
Compression mode : Lossy
Delay relative to video : 300 ms
Stream size : 455 MiB (8%)
Title : Thai BluRay Master
Language : Thai
Service kind : Complete Main
Default : No
Forced : Yes

Text #1
ID : 4
Format : VobSub
Muxing mode : zlib
Codec ID : S_VOBSUB
Codec ID/Info : Picture based subtitle format used on DVDs
Duration : 2 h 11 min
Bit rate : 9 003 b/s
Count of elements : 1592
Stream size : 8.44 MiB (0%)
Title : English Vob
Language : English
Default : No
Forced : No

Text #2
ID : 5
Format : UTF-8
Codec ID : S_TEXT/UTF8
Codec ID/Info : UTF-8 Plain Text
Duration : 2 h 11 min
Bit rate : 68 b/s
Count of elements : 1592
Stream size : 65.5 KiB (0%)
Language : English
Default : No
Forced : No

Text #3
ID : 6
Format : PGS
Muxing mode : zlib
Codec ID : S_HDMV/PGS
Codec ID/Info : Picture based subtitle format used on BDs/HD-DVDs
Duration : 2 h 11 min
Bit rate : 36.4 kb/s
Count of elements : 3184
Stream size : 34.1 MiB (1%)
Title : English PGS
Language : English
Default : No
Forced : No

Text #4
ID : 7
Format : VobSub
Muxing mode : zlib
Codec ID : S_VOBSUB
Codec ID/Info : Picture based subtitle format used on DVDs
Duration : 2 h 10 min
Bit rate : 5 322 b/s
Count of elements : 1300
Stream size : 4.97 MiB (0%)
Title : Thai 1080p
Language : Thai
Default : No
Forced : Yes

Text #5
ID : 8
Format : VobSub
Muxing mode : zlib
Codec ID : S_VOBSUB
Codec ID/Info : Picture based subtitle format used on DVDs
Duration : 2 h 10 min
Bit rate : 7 496 b/s
Count of elements : 1300
Stream size : 7.01 MiB (0%)
Title : Subthai by Meeniiz-Fs
Language : Thai
Default : Yes
Forced : No

Text #6
ID : 9
Format : UTF-8
Codec ID : S_TEXT/UTF8
Codec ID/Info : UTF-8 Plain Text
Duration : 2 h 10 min
Bit rate : 87 b/s
Count of elements : 1300
Stream size : 83.5 KiB (0%)
Language : Thai
Default : No
Forced : No

Text #7
ID : 10
Format : PGS
Muxing mode : zlib
Codec ID : S_HDMV/PGS
Codec ID/Info : Picture based subtitle format used on BDs/HD-DVDs
Duration : 2 h 10 min
Bit rate : 25.5 kb/s
Count of elements : 2600
Stream size : 23.8 MiB (0%)
Title : Thai PGS
Language : Thai
Default : No
Forced : No

Menu
00:00:00.001 : :I’m Forrest…Forrest Gump
00:06:43.070 : :Mama
00:12:24.077 : :Like Peas and Carrots
00:19:56.446 : :Run Forrest Run!
00:31:13.205 : :Private Gump
00:40:39.688 : :Lieutenant Dan
00:44:17.614 : :My Best Good Friend
00:56:33.974 : :Wounded in the Buttocks
01:03:31.767 : :You’re My Girl
01:13:33.576 : :National Celebrity
01:17:02.327 : :Happy New Year
01:23:51.777 : :Shrimp Boat Captain
01:34:59.444 : :Bubba Gump
01:38:55.096 : :Mamma’s Trip to Heaven
01:43:52.393 : :Jenny Comes Home
01:51:27.807 : :A Little Run
01:58:54.211 : :Forrest Meets Forrest
02:04:48.064 : :Beloved Mother, Wife and Friend
02:15:24.700 : :Credits

DOWNLOAD


PART01 |||| PART02 |||| PART03 |||| PART04 |||| PART05 |||| PART06

PART01 |||| PART02 |||| PART03 |||| PART04 |||| PART05 |||| PART06

PART01 |||| PART02 |||| PART03 |||| PART04 |||| PART05 |||| PART06

PART01 |||| PART02 |||| PART03 |||| PART04 |||| PART05 |||| PART06


Leave A Reply

Your email address will not be published.