[MINI Super-HQ] Ford V. Ferrari (2019) ใหญ่ชนยักษ์ ซิ่งทะลุไมล์ [1080p] [พากย์อังกฤษ DTS] [Soundtrack บรรยายไทย + อังกฤษ] [เสียงอังกฤษ + ซับไทย] [PANDAFILE]

0

โหลดหนัง Ford V. Ferrari (2019) ใหญ่ชนยักษ์ ซิ่งทะลุไมล์

Le Mans 66: Gegen jede Chance (2019) 2h 32min | Action, Biography, Drama | 14 November 2019 (Germany) Summary: American car designer Carroll Shelby and driver Ken Miles battle corporate interference and the laws of physics to build a revolutionary race car for Ford in order to defeat Ferrari at the 24 Hours of Le Mans in 1966.
Countries: USA, FranceLanguages: English, Italian, French, Japanese

เรื่องย่อ Ford V. Ferrari (2019) ใหญ่ชนยักษ์ ซิ่งทะลุไมล์

จากเรื่องจริงสุดเหลือเชื่อ! สู่ภาพยนตร์แอคชั่น-ชีวประวัติ Ford v Ferrari เรื่องจริงของการแข่งขันเพื่อชิงความเป็นที่หนึ่งของ สองยักษ์ใหญ่แห่งวงการรถยนต์อย่าง ฟอร์ด (Ford) และเฟอร์รารี่ (Ferrari) ในการแข่งขันรถซิ่งระดับโลก เลอม็องส์ (Le Mans) เมื่อปี 1966 Ford v Ferrari กำกับฯโดย เจมส์ แมนโกลด์ ที่นอกจากนี้ยังได้ร่วมเขียนบทภาพยนตร์กับ เจสัน เคลเลอร์, เจส บัตเตอร์เวิร์ธและจอห์น-เฮนรี่ บัตเตอร์เวิร์ธ โดยได้ คริสเตียน เบล และแมตต์ เดมอน มารับบทนำพร้อมด้วยนักแสดงอีกคับคั่ง อาทิ จอน เบิร์นธัล, ไคทริโอน่า เบลฟ์, เทรซี่ เลตต์, จอช ลูคัส เป็นต้น!!!

Complete name :  [MINI Super-HQ]_Ford.v.Ferrari.2019.1080p.BrRip.DTS.x264.Subthai.One2loadup.com.mkv
Format : Matroska
Format version : Version 4
File size : 4.22 GiB
Duration : 2 h 32 min
Overall bit rate : 3 957 kb/s
Movie name : [MINI Super-HQ]_Ford.v.Ferrari.2019.1080p.BrRip.DTS.x264.Subthai.One2loadup.com
Encoded date : UTC 2010-02-22 21:41:31
Writing application : mkvmerge v5.9.0 (‘On The Loose’) built on Dec 9 2012 15:37:01
Writing library : libebml v1.3.0 + libmatroska v1.4.0

Video
ID : 1
Format : AVC
Format/Info : Advanced Video Codec
Format profile : [email protected]
Format settings : CABAC / 4 Ref Frames
Format settings, CABAC : Yes
Format settings, ReFrames : 4 frames
Codec ID : V_MPEG4/ISO/AVC
Duration : 2 h 32 min
Bit rate : 3 003 kb/s
Width : 1 920 pixels
Height : 804 pixels
Display aspect ratio : 2.40:1
Frame rate mode : Constant
Frame rate : 23.976 (24000/1001) FPS
Color space : YUV
Chroma subsampling : 4:2:0
Bit depth : 8 bits
Scan type : Progressive
Bits/(Pixel*Frame) : 0.081
Stream size : 3.33 GiB (79%)
Title : [MINI Super-HQ]_Ford.v.Ferrari.2019.1080p.BrRip.DTS.x264.Subthai.One2loadup.com
Writing library : x264 core 130 r2273 b3065e6
Encoding settings : cabac=1 / ref=3 / deblock=1:0:0 / analyse=0x3:0x113 / me=umh / subme=11 / psy=1 / psy_rd=1.00:0.00 / mixed_ref=1 / me_range=48 / chroma_me=1 / trellis=2 / 8x8dct=1 / cqm=0 / deadzone=21,11 / fast_pskip=1 / chroma_qp_offset=-2 / threads=24 / lookahead_threads=2 / sliced_threads=0 / nr=0 / decimate=1 / interlaced=0 / bluray_compat=0 / constrained_intra=0 / bframes=3 / b_pyramid=2 / b_adapt=1 / b_bias=0 / direct=1 / weightb=1 / open_gop=0 / weightp=2 / keyint=240 / keyint_min=24 / scenecut=40 / intra_refresh=0 / rc_lookahead=40 / rc=2pass / mbtree=1 / bitrate=3003 / ratetol=1.0 / qcomp=0.60 / qpmin=0 / qpmax=69 / qpstep=4 / cplxblur=20.0 / qblur=0.5 / ip_ratio=1.40 / aq=1:1.00
Language : English
Default : Yes
Forced : No
Color range : Limited
Color primaries : BT.709
Transfer characteristics : BT.709
Matrix coefficients : BT.709

Audio
ID : 2
Format : DTS
Format/Info : Digital Theater Systems
Codec ID : A_DTS
Duration : 2 h 32 min
Bit rate mode : Constant
Bit rate : 755 kb/s
Channel(s) : 6 channels
Channel layout : C L R Ls Rs LFE
Sampling rate : 48.0 kHz
Frame rate : 93.750 FPS (512 SPF)
Bit depth : 24 bits
Compression mode : Lossy
Stream size : 823 MiB (19%)
Title : English DTS
Language : English
Default : Yes
Forced : No

Text #1
ID : 3
Format : VobSub
Codec ID : S_VOBSUB
Codec ID/Info : Picture based subtitle format used on DVDs
Title : Thai 720p
Language : Thai
Default : No
Forced : No

Text #2
ID : 4
Format : VobSub
Codec ID : S_VOBSUB
Codec ID/Info : Picture based subtitle format used on DVDs
Title : Thai 1080p
Language : Thai
Default : Yes
Forced : Yes

Text #3
ID : 5
Format : VobSub
Codec ID : S_VOBSUB
Codec ID/Info : Picture based subtitle format used on DVDs
Title : Thai 1080p Yellow
Language : Thai
Default : No
Forced : No

Text #4
ID : 6
Format : VobSub
Codec ID : S_VOBSUB
Codec ID/Info : Picture based subtitle format used on DVDs
Title : Thai 1080p Out
Language : Thai
Default : No
Forced : No

Text #5
ID : 7
Format : VobSub
Codec ID : S_VOBSUB
Codec ID/Info : Picture based subtitle format used on DVDs
Title : Thai 1080p BIG
Language : Thai
Default : No
Forced : No

Text #6
ID : 8
Format : VobSub
Codec ID : S_VOBSUB
Codec ID/Info : Picture based subtitle format used on DVDs
Title : Thai 1080p Out [BIG]
Language : Thai
Default : No
Forced : No

Text #7
ID : 9
Format : PGS
Codec ID : S_HDMV/PGS
Codec ID/Info : Picture based subtitle format used on BDs/HD-DVDs
Title : Thai PGS
Language : Thai
Default : No
Forced : No

Text #8
ID : 10
Format : PGS
Codec ID : S_HDMV/PGS
Codec ID/Info : Picture based subtitle format used on BDs/HD-DVDs
Title : Thai PGS Yellow
Language : Thai
Default : No
Forced : No

Text #9
ID : 11
Format : PGS
Codec ID : S_HDMV/PGS
Codec ID/Info : Picture based subtitle format used on BDs/HD-DVDs
Title : Thai PGS Out
Language : Thai
Default : No
Forced : No

Text #10
ID : 12
Format : PGS
Codec ID : S_HDMV/PGS
Codec ID/Info : Picture based subtitle format used on BDs/HD-DVDs
Title : English
Language : English
Default : No
Forced : No

Menu
00:00:00.000 : :Chapter 01
00:04:45.619 : :Chapter 02
00:07:32.535 : :Chapter 03
00:10:02.811 : :Chapter 04
00:15:39.313 : :Chapter 05
00:20:15.172 : :Chapter 06
00:21:39.798 : :Chapter 07
00:26:00.893 : :Chapter 08
00:31:57.874 : :Chapter 09
00:34:09.756 : :Chapter 10
00:39:13.268 : :Chapter 11
00:42:06.899 : :Chapter 12
00:45:57.004 : :Chapter 13
00:48:38.666 : :Chapter 14
00:51:22.079 : :Chapter 15
00:55:03.675 : :Chapter 16
00:57:50.801 : :Chapter 17
01:00:27.040 : :Chapter 18
01:06:33.489 : :Chapter 19
01:11:59.815 : :Chapter 20
01:16:13.778 : :Chapter 21
01:19:30.516 : :Chapter 22
01:24:18.762 : :Chapter 23
01:29:24.985 : :Chapter 24
01:33:16.174 : :Chapter 25
01:38:11.302 : :Chapter 26
01:40:57.468 : :Chapter 27
01:43:23.322 : :Chapter 28
01:45:49.218 : :Chapter 29
01:50:38.966 : :Chapter 30
01:53:38.353 : :Chapter 31
01:57:47.602 : :Chapter 32
02:00:16.668 : :Chapter 33
02:05:22.890 : :Chapter 34
02:09:18.376 : :Chapter 35
02:12:01.497 : :Chapter 36
02:15:26.410 : :Chapter 37
02:18:23.128 : :Chapter 38
02:20:46.438 : :Chapter 39
02:26:27.612 : :Chapter 40

DOWNLOAD


PART01 |||| PART02 |||| PART03 |||| PART04 |||| PART05

PART01 |||| PART02 |||| PART03 |||| PART04 |||| PART05

PART01 |||| PART02 |||| PART03 |||| PART04 |||| PART05

PART01 |||| PART02 |||| PART03 |||| PART04 |||| PART05

PART01 |||| PART02 |||| PART03 |||| PART04 |||| PART05


Leave A Reply

Your email address will not be published.

%d bloggers like this: