[MINI Super-HQ] Final Destination 2 (2003) โกงความตาย…แล้วต้องตาย ภาค 2 [1080p] [พากย์ไทย 5.1 + เสียงอังกฤษ DTS] [บรรยายไทย + อังกฤษ] [เสียงไทย + ซับไทย] [PANDAFILE]

0

Final Destination 2 (2003) โกงความตาย...แล้วต้องตาย ภาค 2

โหลดหนัง Final Destination 2 (2003) โกงความตาย…แล้วต้องตาย ภาค 2

Final Destination 2 | January 31, 2003 (United States) Summary: Kimberly has a premonition of an accident killing multiple people including her and her friends. She blocks the cars behind her on the ramp and as a police trooper arrives, the accident happ... Read all
Countries: United States, CanadaLanguages: English

เรื่องย่อ Final Destination 2 (2003) โกงความตาย…แล้วต้องตาย ภาค 2

การรอดตายของ อเล็กซ์ และแฟนหนุ่มจากเหตุการณ์เครื่องบินเที่ยวบินที่ 180 ระเบิดใน FINAL DESTINATION ภาพยนตร์ของ นิวไลน์ ซีนีม่า ที่เปิดฉายทั่วโลก กลายเป็นภาพยนตร์ที่ได้รับการกล่าวขวัญมากที่สุดเรื่องหนึ่ง และการกลับมาอีกครั้งของ FINAL DESTINATION 2 เริ่มขึ้น คิมเบอร์รี่ย์ วูบหนึ่งเธอเห็นภาพรถพ่วงคันใหญ่ เกิดอุบัติเหตุชนบนถนนฟรีเวย์อยู่ตรงหน้าเธอและเพื่อน เธอตกใจและหักหลบ มันเป็นความสูญเสียครั้งใหญ่สุดสยองในนิวยอร์ค เหตุการณ์รู้ล่วงหน้านี้มันเคยเกิดขึ้นกับอเล็กซ์ เมื่อความตายถูกออกแบบขี้นมาในรูปแบบใหม่ และซับซ้อนกว่าเดิม พร้อมความหน้ากลัวที่ทวีขึ้น ลางสังหรณ์ของเธอเริ่มที่จะชัดขึ้นเรื่อยๆ กับเหตุการณ์ล่วงหน้า เธอและคิมเบอร์ลี่ย์พยายามคิดรวบรวมเหตุการณ์แต่ละครั้งที่เกิดขึ้น เพื่อช่วยเพื่อนของเธอ ครั้งนี้เธอตั้งใจที่จะโกงความตาย หรือเธอจะต้องตายจริง

Complete name : [MINI Super-HQ]_2.Final.Destination.2003.1080p.BrRip.DTS.x264.One2loadup.com.mkv
Format : Matroska
Format version : Version 4
File size : 4.19 GiB
Duration : 1 h 30 min
Overall bit rate : 6 647 kb/s
Movie name : [MINI Super-HQ]_2.Final.Destination.2003.1080p.BrRip.DTS.x264.One2loadup.com
Encoded date : UTC 2018-03-26 09:30:50
Writing application : mkvmerge v18.0.0 (‘Apricity’) 32-bit
Writing library : libebml v1.3.5 + libmatroska v1.4.8

Video
ID : 1
Format : AVC
Format/Info : Advanced Video Codec
Format profile : [email protected]
Format settings : CABAC / 4 Ref Frames
Format settings, CABAC : Yes
Format settings, ReFrames : 4 frames
Codec ID : V_MPEG4/ISO/AVC
Duration : 1 h 30 min
Bit rate : 5 229 kb/s
Width : 1 920 pixels
Height : 1 080 pixels
Display aspect ratio : 16:9
Frame rate mode : Constant
Frame rate : 23.976 (23976/1000) FPS
Color space : YUV
Chroma subsampling : 4:2:0
Bit depth : 8 bits
Scan type : Progressive
Bits/(Pixel*Frame) : 0.105
Stream size : 3.29 GiB (79%)
Title : [MINI Super-HQ]_2.Final.Destination.2003.1080p.BrRip.DTS.x264.One2loadup.com
Writing library : x264 core 146 r2538 121396c
Encoding settings : cabac=1 / ref=4 / deblock=1:-3:-3 / analyse=0x3:0x113 / me=umh / subme=11 / psy=1 / psy_rd=1.00:0.00 / mixed_ref=1 / me_range=64 / chroma_me=1 / trellis=2 / 8x8dct=1 / cqm=0 / deadzone=21,11 / fast_pskip=0 / chroma_qp_offset=-2 / threads=24 / lookahead_threads=2 / sliced_threads=0 / nr=0 / decimate=1 / interlaced=0 / bluray_compat=0 / constrained_intra=0 / bframes=4 / b_pyramid=2 / b_adapt=2 / b_bias=0 / direct=3 / weightb=1 / open_gop=0 / weightp=2 / keyint=250 / keyint_min=23 / scenecut=40 / intra_refresh=0 / rc_lookahead=120 / rc=2pass / mbtree=1 / bitrate=5229 / ratetol=1.0 / qcomp=0.60 / qpmin=0 / qpmax=69 / qpstep=4 / cplxblur=20.0 / qblur=0.5 / vbv_maxrate=50000 / vbv_bufsize=62500 / nal_hrd=none / filler=0 / ip_ratio=1.40 / aq=1:1.00
Language : English
Default : Yes
Forced : No

Audio #1
ID : 2
Format : AC-3
Format/Info : Audio Coding 3
Commercial name : Dolby Digital
Codec ID : A_AC3
Duration : 1 h 30 min
Bit rate mode : Constant
Bit rate : 640 kb/s
Channel(s) : 6 channels
Channel layout : L R C LFE Ls Rs
Sampling rate : 48.0 kHz
Frame rate : 31.250 FPS (1536 SPF)
Bit depth : 16 bits
Compression mode : Lossy
Delay relative to video : 1 s 754 ms
Stream size : 413 MiB (10%)
Language : Thai
Service kind : Complete Main
Default : Yes
Forced : Yes

Audio #2
ID : 3
Format : DTS
Format/Info : Digital Theater Systems
Codec ID : A_DTS
Duration : 1 h 30 min
Bit rate mode : Constant
Bit rate : 755 kb/s
Channel(s) : 6 channels
Channel layout : C L R Ls Rs LFE
Sampling rate : 48.0 kHz
Frame rate : 93.750 FPS (512 SPF)
Bit depth : 24 bits
Compression mode : Lossy
Stream size : 487 MiB (11%)
Language : English
Default : No
Forced : No

Text #1
ID : 4
Format : VobSub
Muxing mode : zlib
Codec ID : S_VOBSUB
Codec ID/Info : Picture based subtitle format used on DVDs
Duration : 1 h 24 min
Bit rate : 7 896 b/s
Count of elements : 938
Stream size : 4.79 MiB (0%)
Title : 1080P
Language : Thai
Default : Yes
Forced : Yes

Text #2
ID : 5
Format : VobSub
Muxing mode : zlib
Codec ID : S_VOBSUB
Codec ID/Info : Picture based subtitle format used on DVDs
Duration : 1 h 24 min
Bit rate : 7 887 b/s
Count of elements : 938
Stream size : 4.79 MiB (0%)
Title : 1080P YELLOW
Language : Thai
Default : No
Forced : No

Text #3
ID : 6
Format : VobSub
Muxing mode : zlib
Codec ID : S_VOBSUB
Codec ID/Info : Picture based subtitle format used on DVDs
Duration : 1 h 24 min
Bit rate : 2 168 b/s
Count of elements : 938
Stream size : 1.32 MiB (0%)
Title : 480P
Language : Thai
Default : No
Forced : No

Text #4
ID : 7
Format : UTF-8
Codec ID : S_TEXT/UTF8
Codec ID/Info : UTF-8 Plain Text
Duration : 1 h 24 min
Bit rate : 57 b/s
Count of elements : 998
Stream size : 36.0 KiB (0%)
Title : SRT
Language : English
Default : No
Forced : No

Text #5
ID : 8
Format : PGS
Muxing mode : zlib
Codec ID : S_HDMV/PGS
Codec ID/Info : Picture based subtitle format used on BDs/HD-DVDs
Duration : 1 h 24 min
Bit rate : 27.7 kb/s
Count of elements : 1880
Stream size : 16.8 MiB (0%)
Title : BD MASTER
Language : Thai
Default : No
Forced : No

DOWNLOAD


PART01 |||| PART02 |||| PART03 |||| PART04 |||| PART05

PART01 |||| PART02 |||| PART03 |||| PART04 |||| PART05

PART01 |||| PART02 |||| PART03 |||| PART04 |||| PART05

PART01 |||| PART02 |||| PART03 |||| PART04 |||| PART05

PART01 |||| PART02 |||| PART03 |||| PART04 |||| PART05


Leave A Reply

อีเมล์ของคุณจะไม่แสดงให้เห็น Your email address will not be published.

%d bloggers like this: