[MINI Super-HQ] Faster (2010) ฝังแค้นแรงระห่ำนรก [1080p] [พากย์ไทย 5.1 + เสียงอังกฤษ DTS] [บรรยายไทย + อังกฤษ] [เสียงไทย + ซับไทย] [OPENLOAD]

0

Faster (2010)

โหลดหนัง Faster (2010) ฝังแค้นแรงระห่ำนรก

Faster (2010) 1h 38min | Action, Crime, Drama | 24 November 2010 (Canada) Summary: An ex-con gets on a series of apparently unrelated killings. He gets tracked by a veteran cop with secrets of his own and an egocentric hit man.
Countries: USALanguages: English

เรื่องย่อ Faster (2010) ฝังแค้นแรงระห่ำนรก

หลังจากใช้ชีวิตอยู่ในเรือนจำมา 10 ปี นักซิ่ง (ดเวย์น จอห์นสัน) มีเป้าหมายเพียงหนึ่งเดียวเท่านั้น นั่นคือล้างแค้นให้น้องชายที่ถูกฆ่าตายระหว่างการปล้นที่ล้มเหลว การปล้นที่เป็นเหตุให้เขาต้องลงเอยในซังเตแบบนี้ บัดนี้ ชายผู้มีจุดมุ่งหมายแสนอันตรายได้รับการปล่อยตัวให้เป็นอิสระแล้ว ในที่สุดเขาก็จะได้เดินหน้าปฏิบัติภารกิจที่รอคอยเสียที แต่อุปสรรคของเขาคือชาย 2 คนที่คอยติดตามเขาชนิดไม่ให้คลาดสายตา คนแรกคือ ตำรวจ (บิลลี บ็อบ ธอร์นตัน) รุ่นเก๋าที่ใกล้จะเกษียณเต็มแก่ อีกคนคือ นักฆ่า (โอลิเวอร์ แจ็กสัน-โคเฮน) ผู้มีนิสัยพิลึกพิลั่นและพิสมัยศิลปะการสังหารและคู่ต่อกรที่สมน้ำสมเนื้อ ดังนั้นผู้ล่าจึงเป็นผู้ถูกล่าด้วยเช่นกัน หากนักซิ่งไม่ชิงลงมือก่อน เขาก็จะถูกฆ่าเสียเอง นี่คือการแข่งกับเวลาในการปฏิบัติภารกิจเด็ดหัวตามรายชื่อ ในขณะที่ปริศนาที่ห้อมล้อมการตายของน้องชายของเขายิ่งขมวดปมซับซ้อนมากขึ้น หลักฐานใหม่ๆปรากฏออกมา บอกให้นักซิ่งได้รู้ว่า บางทีรายชื่อเหยื่อของเขาอาจยังไม่สมบูรณ์ก็เป็นได้!!!

Complete name : [MINI Super-HQ]_Faster.2010.1080p.DTS.x264.One2loadup.com.mkv
Format : Matroska
Format version : Version 4
File size : 3.74 GiB
Duration : 1 h 37 min
Overall bit rate : 5 467 kb/s
Movie name : [MINI Super-HQ]_Faster.2010.1080p.DTS.x264.One2loadup.com
Encoded date : UTC 2010-02-22 21:41:31
Writing application : mkvmerge v5.9.0 (‘On The Loose’) built on Dec 9 2012 15:37:01
Writing library : libebml v1.3.0 + libmatroska v1.4.0

Video
ID : 1
Format : AVC
Format/Info : Advanced Video Codec
Format profile : [email protected]
Format settings : CABAC / 8 Ref Frames
Format settings, CABAC : Yes
Format settings, ReFrames : 8 frames
Codec ID : V_MPEG4/ISO/AVC
Duration : 1 h 37 min
Bit rate : 4 000 kb/s
Width : 1 920 pixels
Height : 800 pixels
Display aspect ratio : 2.40:1
Frame rate mode : Constant
Frame rate : 23.976 (24000/1001) FPS
Color space : YUV
Chroma subsampling : 4:2:0
Bit depth : 8 bits
Scan type : Progressive
Bits/(Pixel*Frame) : 0.109
Stream size : 2.71 GiB (73%)
Title : [MINI Super-HQ]_Faster.2010.1080p.DTS.x264.One2loadup.com
Writing library : x264 core 146 r2538 121396c
Encoding settings : cabac=1 / ref=8 / deblock=1:-1:-1 / analyse=0x3:0x133 / me=tesa / subme=11 / psy=1 / psy_rd=1.00:0.15 / mixed_ref=1 / me_range=24 / chroma_me=1 / trellis=2 / 8x8dct=1 / cqm=0 / deadzone=21,11 / fast_pskip=1 / chroma_qp_offset=-3 / threads=9 / lookahead_threads=1 / sliced_threads=0 / nr=0 / decimate=1 / interlaced=0 / bluray_compat=0 / constrained_intra=0 / bframes=5 / b_pyramid=2 / b_adapt=2 / b_bias=0 / direct=3 / weightb=1 / open_gop=0 / weightp=2 / keyint=250 / keyint_min=23 / scenecut=40 / intra_refresh=0 / rc_lookahead=60 / rc=2pass / mbtree=1 / bitrate=4000 / ratetol=1.0 / qcomp=0.60 / qpmin=0 / qpmax=69 / qpstep=4 / cplxblur=20.0 / qblur=0.5 / ip_ratio=1.40 / aq=1:1.30
Language : English
Default : Yes
Forced : No

Audio #1
ID : 2
Format : DTS
Format/Info : Digital Theater Systems
Codec ID : A_DTS
Duration : 1 h 37 min
Bit rate mode : Constant
Bit rate : 755 kb/s
Channel(s) : 6 channels
Channel layout : C L R Ls Rs LFE
Sampling rate : 48.0 kHz
Frame rate : 93.750 FPS (512 SPF)
Bit depth : 24 bits
Compression mode : Lossy
Stream size : 529 MiB (14%)
Title : Eng DTS
Language : English
Default : Yes
Forced : Yes

Audio #2
ID : 3
Format : AC-3
Format/Info : Audio Coding 3
Commercial name : Dolby Digital
Codec ID : A_AC3
Duration : 1 h 37 min
Bit rate mode : Constant
Bit rate : 640 kb/s
Channel(s) : 6 channels
Channel layout : L R C LFE Ls Rs
Sampling rate : 48.0 kHz
Frame rate : 31.250 FPS (1536 SPF)
Bit depth : 16 bits
Compression mode : Lossy
Stream size : 448 MiB (12%)
Title : Thai Dolby 5.1 ch
Language : Thai
Service kind : Complete Main
Default : No
Forced : No

Text #1
ID : 4
Format : VobSub
Codec ID : S_VOBSUB
Codec ID/Info : Picture based subtitle format used on DVDs
Title : Thai Vob 480p
Language : Thai
Default : Yes
Forced : Yes

Text #2
ID : 5
Format : VobSub
Codec ID : S_VOBSUB
Codec ID/Info : Picture based subtitle format used on DVDs
Title : Thai Vob 720p
Language : Thai
Default : No
Forced : No

Text #3
ID : 6
Format : VobSub
Codec ID : S_VOBSUB
Codec ID/Info : Picture based subtitle format used on DVDs
Title : Thai Vob 1080p
Language : Thai
Default : No
Forced : No

Text #4
ID : 7
Format : PGS
Codec ID : S_HDMV/PGS
Codec ID/Info : Picture based subtitle format used on BDs/HD-DVDs
Title : Thai In PGS
Language : Thai
Default : No
Forced : No

Text #5
ID : 8
Format : PGS
Codec ID : S_HDMV/PGS
Codec ID/Info : Picture based subtitle format used on BDs/HD-DVDs
Title : Thai Out PGS
Language : Thai
Default : No
Forced : No

Text #6
ID : 9
Format : PGS
Codec ID : S_HDMV/PGS
Codec ID/Info : Picture based subtitle format used on BDs/HD-DVDs
Title : Eng PGS
Language : English
Default : No
Forced : No

Menu
00:00:00.000 : en:00:00:00.000
00:07:51.012 : en:00:07:51.012
00:11:59.844 : en:00:11:59.844
00:20:57.089 : en:00:20:57.089
00:24:29.343 : en:00:24:29.343
00:30:38.837 : en:00:30:38.837
00:35:46.770 : en:00:35:46.770
00:43:30.566 : en:00:43:30.566
00:47:07.533 : en:00:47:07.533
00:54:53.040 : en:00:54:53.040
00:59:17.179 : en:00:59:17.179
01:07:08.566 : en:01:07:08.566
01:11:28.242 : en:01:11:28.242
01:17:09.083 : en:01:17:09.083
01:23:05.564 : en:01:23:05.564
01:28:45.362 : en:01:28:45.362

DOWNLOAD


PART01 |||| PART02 |||| PART03 |||| PART04

PART01 |||| PART02 |||| PART03 |||| PART04

PART01 |||| PART02 |||| PART03 |||| PART04

PART01 |||| PART02 |||| PART03 |||| PART04


Leave A Reply

Your email address will not be published.

%d bloggers like this: