[MINI Super-HQ] Escape The Undertaker (2021) หนีดิอันเดอร์เทเกอร์ [1080p] [NETFLIX] [พากย์ไทย 5.1 + เสียงอังกฤษ 51] [บรรยายไทย + อังกฤษ] [เสียงไทย +ซับไทย] [DOSYAUPLOAD]

0

โหลดหนัง Escape The Undertaker (2021) หนีดิอันเดอร์เทเกอร์

Escape the Undertaker 1860min | Short, Mystery | October 5, 2021 (United States) Summary: Can The New Day survive the surprises at The Undertaker's spooky mansion? You can decide their fate!
Countries: United StatesLanguages: English

เรื่องย่อ Escape The Undertaker (2021) หนีดิอันเดอร์เทเกอร์

เรื่องราวของ “ดิอันเดอร์เทเกอร์” ได้วางกับดักสำหรับแท็กทีมตกแต่ง เดอะนิวเดย์ ที่คฤหาสน์ของเขา สิ่งที่พวกเขาไม่รู้: คฤหาสน์ของดิอันเดอร์เทเกอร์ คือบ้านผีสิงสุดโต่ง เต็มไปด้วยความท้าทายเหนือธรรมชาติผู้ชมจะต้องตัดสินชะตากรรมของวิญญาณผู้น่าสงสารทั้งสามที่พยายามเอาชีวิตรอดจากความโกรธของสัปเหร่อ” จอห์น สไควร์ แห่ง Bloody Disgusting

Complete name : [MINI Super-HQ]_Escape.The.Undertaker.2021.1080p.NF.WEB-DL.EAC3.x264.One2loadup.com.mkv
Format : Matroska
Format version : Version 4
File size : 4.27 GiB
Duration : 1 h 16 min
Overall bit rate : 8 030 kb/s
Movie name : [MINI Super-HQ]_Escape.The.Undertaker.2021.1080p.NF.WEB-DL.EAC3.x264.One2loadup.com
Encoded date : UTC 2021-10-06 14:37:30
Writing application : mkvmerge v61.0.0 (‘So’) 64-bit
Writing library : libebml v1.4.2 + libmatroska v1.6.4

Video
ID : 1
Format : AVC
Format/Info : Advanced Video Codec
Format profile : [email protected]
Format settings : CABAC / 3 Ref Frames
Format settings, CABAC : Yes
Format settings, Reference : 3 frames
Codec ID : V_MPEG4/ISO/AVC
Duration : 1 h 16 min
Bit rate : 6 689 kb/s
Width : 1 920 pixels
Height : 800 pixels
Display aspect ratio : 2.40:1
Frame rate mode : Constant
Frame rate : 23.976 (24000/1001) FPS
Color space : YUV
Chroma subsampling : 4:2:0
Bit depth : 8 bits
Scan type : Progressive
Bits/(Pixel*Frame) : 0.182
Stream size : 3.56 GiB (83%)
Title : [MINI Super-HQ]_Escape.The.Undertaker.2021.1080p.NF.WEB-DL.EAC3.x264.One2loadup.com
Language : English
Default : Yes
Forced : No

Audio #1
ID : 2
Format : E-AC-3
Format/Info : Enhanced AC-3
Commercial name : Dolby Digital Plus
Codec ID : A_EAC3
Duration : 1 h 16 min
Bit rate mode : Constant
Bit rate : 640 kb/s
Channel(s) : 6 channels
Channel layout : L R C LFE Ls Rs
Sampling rate : 48.0 kHz
Frame rate : 31.250 FPS (1536 SPF)
Compression mode : Lossy
Stream size : 348 MiB (8%)
Title : E-AC3 English
Language : English
Service kind : Complete Main
Default : Yes
Forced : No

Audio #2
ID : 3
Format : E-AC-3
Format/Info : Enhanced AC-3
Commercial name : Dolby Digital Plus
Codec ID : A_EAC3
Duration : 1 h 16 min
Bit rate mode : Constant
Bit rate : 640 kb/s
Channel(s) : 6 channels
Channel layout : L R C LFE Ls Rs
Sampling rate : 48.0 kHz
Frame rate : 31.250 FPS (1536 SPF)
Compression mode : Lossy
Stream size : 348 MiB (8%)
Title : E-AC3 Thai
Language : Thai
Service kind : Complete Main
Default : No
Forced : No

Text #1
ID : 4
Format : VobSub
Muxing mode : zlib
Codec ID : S_VOBSUB
Codec ID/Info : Picture based subtitle format used on DVDs
Duration : 1 h 14 min
Bit rate : 11.4 kb/s
Count of elements : 964
Stream size : 6.08 MiB (0%)
Title : Sub Thai 1080p
Language : Thai
Default : No
Forced : No

Text #2
ID : 5
Format : UTF-8
Codec ID : S_TEXT/UTF8
Codec ID/Info : UTF-8 Plain Text
Duration : 1 h 14 min
Bit rate : 117 b/s
Count of elements : 964
Stream size : 63.8 KiB (0%)
Title : Sub Thai SRT
Language : Thai
Default : No
Forced : No

Text #3
ID : 6
Format : PGS
Muxing mode : zlib
Codec ID : S_HDMV/PGS
Codec ID/Info : Picture based subtitle format used on BDs/HD-DVDs
Duration : 1 h 14 min
Bit rate : 31.8 kb/s
Count of elements : 1928
Stream size : 16.9 MiB (0%)
Title : Sub Thai PGS
Language : Thai
Default : No
Forced : No

Text #4
ID : 7
Format : PGS
Muxing mode : zlib
Codec ID : S_HDMV/PGS
Codec ID/Info : Picture based subtitle format used on BDs/HD-DVDs
Duration : 1 h 14 min
Bit rate : 55.5 kb/s
Count of elements : 1928
Stream size : 29.5 MiB (1%)
Title : Sub Thai PGS NETFLIX
Language : Thai
Default : Yes
Forced : No

Text #5
ID : 8
Format : UTF-8
Codec ID : S_TEXT/UTF8
Codec ID/Info : UTF-8 Plain Text
Duration : 1 h 14 min
Bit rate : 65 b/s
Count of elements : 1184
Stream size : 35.7 KiB (0%)
Title : Sub English SRT
Language : English
Default : No
Forced : No

DOWNLOAD


PART01 |||| PART02 |||| PART03 |||| PART04 |||| PART05

PART01 |||| PART02 |||| PART03 |||| PART04 |||| PART05

PART01 |||| PART02 |||| PART03 |||| PART04 |||| PART05

PART01 |||| PART02 |||| PART03 |||| PART04 |||| PART05

PART01 |||| PART02 |||| PART03 |||| PART04 |||| PART05


Leave A Reply

อีเมล์ของคุณจะไม่แสดงให้เห็น Your email address will not be published.

%d bloggers like this: