[MINI Super-HQ] Emma. (2020) เอ็มม่า [1080p] [พากย์อังกฤษ DTS] [Soundtrack บรรยายไทย + อังกฤษ] [เสียงอังกฤษ + ซับไทย] [PANDAFILE]

0

โหลดหนัง Emma. (2020) เอ็มม่า

Emma. (2020) 2h 4min | Comedy, Drama | 6 March 2020 (USA) Summary: In 1800s England, a well meaning but selfish young woman meddles in the love lives of her friends.
Countries: UKLanguages: English

เรื่องย่อ Emma. (2020) เอ็มม่า

นิยายแนวขบขันของ เจน ออสติน ที่ทุกคนรักและชื่นชอบ เกี่ยวกับการค้นหาความเท่าเทียมและการได้พบตอนจบแบบมีความสุขได้ถูกนำมาจินตนาการใหม่อีกครั้งในภาพยนตร์ใหม่สุดแซ่บที่ดัดแปลงมาจากเรื่อง EMMA. เอ็มม่า วู้ดเฮ้าส์ ผู้ร่ำรวย ฉลาด และสุดเท่ คือ “ราชินีผึ้ง” ที่ไร้คู่แข่ง เธออาศัยอยู่ในเมืองเล็กๆ ที่แสนเงียบเหงาในอังกฤษ ในเรื่องราวเสียดสีเรื่องชนชั้นทางสังคมเรื่องนี้เอ็มม่าต้องสำรวจเส้นทางชีวิตของเธอผ่านความท้าทายต่างๆ ไม่ว่าจะเป็นเรื่องของการเติบโตการจับคู่แบบผิดๆ และความผิดพลาดสุดโรแมนติคเพื่อจะมารู้ตัวว่าแท้จริงแล้วความรักก็อยู่เคียงข้างเธอมาตลอดเส้นทาง!!!

Complete name : [MINI Super-HQ]_Emma.2020.BluRay.1080p.x264.DTS.Subthai.One2loadup.com.mkv
Format : Matroska
Format version : Version 4
File size : 3.57 GiB
Duration : 2 h 4 min
Overall bit rate : 4 110 kb/s
Movie name : [MINI Super-HQ]_Emma.2020.BluRay.1080p.x264.DTS.Subthai.One2loadup.com
Encoded date : UTC 2020-06-16 11:44:53
Writing application : mkvmerge v9.8.0 (‘Kuglblids’) 64bit
Writing library : libebml v1.3.4 + libmatroska v1.4.5

Video
ID : 1
Format : AVC
Format/Info : Advanced Video Codec
Format profile : [email protected]
Format settings : CABAC / 4 Ref Frames
Format settings, CABAC : Yes
Format settings, ReFrames : 4 frames
Codec ID : V_MPEG4/ISO/AVC
Duration : 2 h 4 min
Bit rate : 3 200 kb/s
Width : 1 920 pixels
Height : 1 080 pixels
Display aspect ratio : 16:9
Frame rate mode : Constant
Frame rate : 23.976 (24000/1001) FPS
Color space : YUV
Chroma subsampling : 4:2:0
Bit depth : 8 bits
Scan type : Progressive
Bits/(Pixel*Frame) : 0.064
Stream size : 2.78 GiB (78%)
Title : [MINI Super-HQ]_Emma.2020.BluRay.1080p.x264.DTS.Subthai.One2loadup.com
Writing library : x264 core 146 r2538 121396c
Encoding settings : cabac=1 / ref=5 / deblock=1:-3:-3 / analyse=0x3:0x133 / me=tesa / subme=11 / psy=1 / psy_rd=1.00:0.15 / mixed_ref=1 / me_range=48 / chroma_me=1 / trellis=2 / 8x8dct=1 / cqm=0 / deadzone=21,11 / fast_pskip=1 / chroma_qp_offset=-3 / threads=54 / lookahead_threads=4 / sliced_threads=0 / nr=0 / decimate=1 / interlaced=0 / bluray_compat=1 / constrained_intra=0 / bframes=3 / b_pyramid=1 / b_adapt=2 / b_bias=0 / direct=3 / weightb=1 / open_gop=0 / weightp=1 / keyint=250 / keyint_min=1 / scenecut=40 / intra_refresh=0 / rc_lookahead=60 / rc=2pass / mbtree=1 / bitrate=3200 / ratetol=1.0 / qcomp=0.60 / qpmin=0 / qpmax=69 / qpstep=4 / cplxblur=20.0 / qblur=0.5 / ip_ratio=1.40 / aq=1:1.30
Language : English
Default : Yes
Forced : Yes

Audio
ID : 2
Format : DTS
Format/Info : Digital Theater Systems
Codec ID : A_DTS
Duration : 2 h 4 min
Bit rate mode : Constant
Bit rate : 755 kb/s
Channel(s) : 6 channels
Channel layout : C L R Ls Rs LFE
Sampling rate : 48.0 kHz
Frame rate : 93.750 FPS (512 SPF)
Bit depth : 24 bits
Compression mode : Lossy
Stream size : 671 MiB (18%)
Title : English DTS
Language : English
Default : Yes
Forced : Yes

Text #1
ID : 3
Format : VobSub
Codec ID : S_VOBSUB
Codec ID/Info : Picture based subtitle format used on DVDs
Duration : 33 s 314 ms
Bit rate : 2 967 b/s
Count of elements : 1
Stream size : 12.1 KiB (0%)
Title : Thai
Language : Thai
Default : Yes
Forced : Yes

Text #2
ID : 4
Format : VobSub
Codec ID : S_VOBSUB
Codec ID/Info : Picture based subtitle format used on DVDs
Duration : 2 h 3 min
Bit rate : 3 421 b/s
Count of elements : 1295
Stream size : 3.02 MiB (0%)
Title : Thai 720p
Language : Thai
Default : No
Forced : No

Text #3
ID : 5
Format : VobSub
Codec ID : S_VOBSUB
Codec ID/Info : Picture based subtitle format used on DVDs
Duration : 2 h 3 min
Bit rate : 6 458 b/s
Count of elements : 1295
Stream size : 5.71 MiB (0%)
Title : Thai 1080p
Language : Thai
Default : No
Forced : No

Text #4
ID : 6
Format : VobSub
Codec ID : S_VOBSUB
Codec ID/Info : Picture based subtitle format used on DVDs
Duration : 2 h 3 min
Bit rate : 6 454 b/s
Count of elements : 1295
Stream size : 5.70 MiB (0%)
Title : Thai 1080p Yellow
Language : Thai
Default : No
Forced : No

Text #5
ID : 7
Format : VobSub
Codec ID : S_VOBSUB
Codec ID/Info : Picture based subtitle format used on DVDs
Duration : 2 h 3 min
Bit rate : 8 653 b/s
Count of elements : 1295
Stream size : 7.65 MiB (0%)
Title : Thai 1080p Big
Language : Thai
Default : No
Forced : No

Text #6
ID : 8
Format : PGS
Codec ID : S_HDMV/PGS
Codec ID/Info : Picture based subtitle format used on BDs/HD-DVDs
Duration : 2 h 3 min
Bit rate : 28.0 kb/s
Count of elements : 2590
Stream size : 24.8 MiB (1%)
Title : Thai PGS BluRay Master
Language : Thai
Default : No
Forced : No

Text #7
ID : 9
Format : PGS
Codec ID : S_HDMV/PGS
Codec ID/Info : Picture based subtitle format used on BDs/HD-DVDs
Duration : 2 h 3 min
Bit rate : 19.1 kb/s
Count of elements : 2590
Stream size : 16.9 MiB (0%)
Title : Thai 1080p Yellow PGS
Language : Thai
Default : No
Forced : No

Text #8
ID : 10
Format : PGS
Codec ID : S_HDMV/PGS
Codec ID/Info : Picture based subtitle format used on BDs/HD-DVDs
Duration : 2 h 3 min
Bit rate : 41.1 kb/s
Count of elements : 2590
Stream size : 36.3 MiB (1%)
Title : Thai 1080p Big PGS
Language : Thai
Default : No
Forced : No

Text #9
ID : 11
Format : PGS
Codec ID : S_HDMV/PGS
Codec ID/Info : Picture based subtitle format used on BDs/HD-DVDs
Duration : 2 h 2 min
Bit rate : 42.7 kb/s
Count of elements : 3028
Stream size : 37.5 MiB (1%)
Title : English BluRay Master
Language : English
Default : No
Forced : No

Menu
00:00:00.000 : en:00:00:00.000
00:07:56.851 : en:00:07:56.851
00:11:50.335 : en:00:11:50.335
00:16:45.588 : en:00:16:45.588
00:22:16.627 : en:00:22:16.627
00:25:55.012 : en:00:25:55.012
00:32:10.637 : en:00:32:10.637
00:36:23.681 : en:00:36:23.681
00:44:38.301 : en:00:44:38.301
00:47:55.748 : en:00:47:55.748
00:56:40.814 : en:00:56:40.814
01:00:40.345 : en:01:00:40.345
01:05:40.353 : en:01:05:40.353
01:09:52.313 : en:01:09:52.313
01:18:50.559 : en:01:18:50.559
01:25:29.082 : en:01:25:29.082
01:35:30.683 : en:01:35:30.683
01:44:04.989 : en:01:44:04.989
01:55:40.600 : en:01:55:40.600
01:57:47.060 : en:01:57:47.060

DOWNLOAD


PART01 |||| PART02 |||| PART03 |||| PART04

PART01 |||| PART02 |||| PART03 |||| PART04

PART01 |||| PART02 |||| PART03 |||| PART04

PART01 |||| PART02 |||| PART03 |||| PART04

PART01 |||| PART02 |||| PART03 |||| PART04



Disable Comments
%d bloggers like this: