[MINI Super-HQ] Don’t Tell a Soul (2020) [1080p] [พากย์อังกฤษ 5.1] [Soundtrack บรรยายไทย + อังกฤษ] [เสียงอังกฤษ + ซับไทย] [USERLOAD]

0

โหลดหนัง Don’t Tell a Soul (2020)

Don't Tell a Soul (2020) 83min | Drama, Thriller | January 15, 2021 (United States) Summary: Two thieving teenage brothers, stealing money to help their sick mom, match wits with a troubled security guard stuck at the bottom of a forgotten well.
Countries: United StatesLanguages: English

เรื่องย่อ Don’t Tell a Soul (2020)

สองพี่น้องวัยรุ่นจอมขโมย ขโมยเงินเพื่อช่วยแม่ที่ป่วย ทั้งคู่หนีเข้าไปในป่าโดยมี รปภ. ตามจับตัว จน รปภ. เกิดตกลงไปในบ่อร้าง สองพี่น้องจะทำยังไง ถ้าช่วยก็อาจจะโดนจับ ถ้าไม่ช่วย รปภ. คนนั้นก็จะติดอยู่ก้นบ่อจนตาย แต่เหตุการ์เพิ่งเรื่มต้น…

Complete name : C[MINI Super-HQ]_Dont.Tell.a.Soul.2020.1080p.BDRip.AC3.x264.Subthai.One2loadup.com.mkv
Format : Matroska
Format version : Version 4
File size : 7.36 GiB
Duration : 1 h 23 min
Overall bit rate : 12.6 Mb/s
Encoded date : UTC 2021-08-19 04:49:01
Writing application : mkvmerge v60.0.0 (‘Are We Copies?’) 64-bit
Writing library : libebml v1.4.2 + libmatroska v1.6.4
Cover : Yes
Attachments : cover

Video
ID : 1
Format : AVC
Format/Info : Advanced Video Codec
Format profile : [email protected]
Format settings : CABAC / 5 Ref Frames
Format settings, CABAC : Yes
Format settings, Reference : 5 frames
Codec ID : V_MPEG4/ISO/AVC
Duration : 1 h 23 min
Bit rate : 11.9 Mb/s
Width : 1 920 pixels
Height : 804 pixels
Display aspect ratio : 2.40:1
Frame rate mode : Constant
Frame rate : 23.976 (24000/1001) FPS
Color space : YUV
Chroma subsampling : 4:2:0
Bit depth : 8 bits
Scan type : Progressive
Bits/(Pixel*Frame) : 0.323
Stream size : 6.97 GiB (95%)
Writing library : x264 core 161 r3048+58M ~ Encoded by Mocunaman in Portugal
Encoding settings : cabac=1 / ref=5 / deblock=1:-3:-3 / analyse=0x3:0x113 / me=umh / subme=11 / psy=1 / fade_compensate=0.00 / psy_rd=1.00:0.00 / mixed_ref=1 / me_range=32 / chroma_me=1 / trellis=2 / 8x8dct=1 / cqm=0 / deadzone=21,11 / fast_pskip=0 / chroma_qp_offset=-2 / threads=25 / lookahead_threads=6 / sliced_threads=0 / nr=0 / decimate=0 / interlaced=0 / bluray_compat=0 / constrained_intra=0 / fgo=0 / bframes=14 / b_pyramid=2 / b_adapt=2 / b_bias=0 / direct=3 / weightb=1 / open_gop=0 / weightp=2 / keyint=250 / keyint_min=23 / scenecut=40 / intra_refresh=0 / rc_lookahead=60 / rc=crf / mbtree=0 / crf=17.3000 / qcomp=0.60 / qpmin=0:0:0 / qpmax=69:69:69 / qpstep=4 / vbv_maxrate=62500 / vbv_bufsize=78125 / crf_max=0.0 / nal_hrd=none / filler=0 / ip_ratio=1.30 / pb_ratio=1.20 / aq=3:0.85 / aq-sensitivity=10.00 / aq-factor=1.00:1.00:1.00 / aq2=0 / aq3=0 / zones=0,1392,crf=15.3/1608,2377,crf=16.8/4600,6032,crf=15.3/8919,12997,crf=16.3/15565,17533,crf=16.8/22208,26144,crf=16.8/28880,35024,crf=16.8/35972,45309,crf=15.3/48093,52430,crf=15.3/54179,70179,crf=15.8/70635,78651,crf=16.3/79707,80858,crf=16.8/103490,104360,crf=16.8/106428,113388,crf=16.8
Language : English
Default : Yes
Forced : No
Color range : Limited
Color primaries : BT.709
Transfer characteristics : BT.709
Matrix coefficients : BT.709

Audio
ID : 2
Format : AC-3
Format/Info : Audio Coding 3
Commercial name : Dolby Digital
Codec ID : A_AC3
Duration : 1 h 23 min
Bit rate mode : Constant
Bit rate : 640 kb/s
Channel(s) : 6 channels
Channel layout : L R C LFE Ls Rs
Sampling rate : 48.0 kHz
Frame rate : 31.250 FPS (1536 SPF)
Compression mode : Lossy
Stream size : 382 MiB (5%)
Language : English
Service kind : Complete Main
Default : Yes
Forced : No

Text #1
ID : 3
Format : UTF-8
Codec ID : S_TEXT/UTF8
Codec ID/Info : UTF-8 Plain Text
Duration : 1 h 21 min
Bit rate : 113 b/s
Count of elements : 1140
Stream size : 67.6 KiB (0%)
Language : English
Default : No
Forced : No

Text #2
ID : 4
Format : PGS
Muxing mode : zlib
Codec ID : S_HDMV/PGS
Codec ID/Info : Picture based subtitle format used on BDs/HD-DVDs
Duration : 1 h 21 min
Bit rate : 39.1 kb/s
Count of elements : 2280
Stream size : 22.7 MiB (0%)
Language : English
Default : No
Forced : No

Text #3
ID : 5
Format : UTF-8
Codec ID : S_TEXT/UTF8
Codec ID/Info : UTF-8 Plain Text
Duration : 1 h 17 min
Bit rate : 182 b/s
Count of elements : 947
Stream size : 103 KiB (0%)
Language : Thai
Default : Yes
Forced : Yes

Text #4
ID : 6
Format : PGS
Muxing mode : zlib
Codec ID : S_HDMV/PGS
Codec ID/Info : Picture based subtitle format used on BDs/HD-DVDs
Duration : 1 h 17 min
Bit rate : 33.5 kb/s
Count of elements : 1894
Stream size : 18.5 MiB (0%)
Language : Thai
Default : No
Forced : No

Menu
00:00:00.000 : Chapter 01
00:06:11.997 : Chapter 02
00:09:02.125 : Chapter 03
00:12:21.282 : Chapter 04
00:18:44.373 : Chapter 05
00:24:21.627 : Chapter 06
00:28:03.974 : Chapter 07
00:31:29.805 : Chapter 08
00:35:44.392 : Chapter 09
00:37:39.716 : Chapter 10
00:44:04.350 : Chapter 11
00:52:43.744 : Chapter 12
01:00:36.550 : Chapter 13
01:05:14.994 : Chapter 14
01:08:31.816 : Chapter 15
01:16:16.947 : Chapter 16

DOWNLOAD


PART01 |||| PART02 |||| PART03 |||| PART04 |||| PART05 |||| PART06 |||| PART07 |||| PART08

PART01 |||| PART02 |||| PART03 |||| PART04 |||| PART05 |||| PART06 |||| PART07 |||| PART08

PART01 |||| PART02 |||| PART03 |||| PART04 |||| PART05 |||| PART06 |||| PART07 |||| PART08

PART01 |||| PART02 |||| PART03 |||| PART04 |||| PART05 |||| PART06 |||| PART07 |||| PART08

PART01 |||| PART02 |||| PART03 |||| PART04 |||| PART05 |||| PART06 |||| PART07 |||| PART08


Leave A Reply

อีเมล์ของคุณจะไม่แสดงให้เห็น Your email address will not be published.

%d bloggers like this: