[MINI Super-HQ] Dolittle (2020) ด็อกเตอร์ ดูลิตเติ้ล [1080p] [พากย์ไทย 5.1 + เสียงอังกฤษ DTS] [บรรยายไทย + อังกฤษ] [เสียงไทย + ซับไทย] [PANDAFILE]

0

โหลดหนัง Dolittle (2020) ด็อกเตอร์ ดูลิตเติ้ล

Dolittle | January 17, 2020 (United States) Summary: A physician who can talk to animals embarks on an adventure to find a legendary island with a young apprentice and a crew of strange pets.
Countries: United States, China, United Kingdom, JapanLanguages: English, French

เรื่องย่อ Dolittle (2020) ด็อกเตอร์ ดูลิตเติ้ล

หลังจากสูญเสียภรรยาเมื่อเจ็ดปีก่อนด็อกเตอร์ จอห์น ดูลิตเติ้ล (ดาวนีย์) ผู้มีความแปลกไม่เหมือนใครและสร้างชื่อเสียงเป็นหมอและสัตว์แพทย์ของสมเด็จพระราชินีวิคตอเรียแห่งอังกฤษ เขาใช้ชีวิตอย่างสันโดษอยู่หลังกำแพงสูง
ซึ่งเป็นที่ตั้งของคฤหาสน์ดูลิตเติ้ลกับสวนสัตว์ที่ม ีสัตว์หายาก แต่เมื่อพระราชินี (เจสซี่ บัคลีย์ จาก Wild Rose) มีพระอาการประชวรอย่างสาหัสดูลิตเติ้ลจึงต้องออกเดินทางผจญภัยไปยังเกาะในตำนาน เพื่อหาวิธีรักษา พร้อมทั้งรื้อฟื้นสติปัญญาและความกล้าหาญต้องต่อสู้กับศัตรูและค้นพบสิ่งมีชีวิตมหัศจรรย์คุณหมอออกเดินทางไปกับนักเดินทางวัยเยาว์ (แฮร์รี่ คอลเล็ตต์) และเหล่าเพื่อนที่เป็นสัตว์ดุร้ายอาทิ ลิงกอริลลาผู้มีความกังวล (รามี มาเล็ก เจ้าของรางวัลออสการ์), เป็ดสมองนก ผู้กระตือรือล้น (เจ้าของรางวัลออสการ์ ออคตาเวีย สเปนเซอร์) นกกระจอกเทศจอมถากถาง (คูเมล นันจานี จาก The Big Sick) หมีขั้วโลกที่มองโลกในแง่ดี (จอห์น ซีนา จาก Bumblebee) และนกแก้วหัวแข็ง (เจ้าของรางวัลออสการ์ เอ็มม่า ธอมป์สัน) ซึ่งทำหน้าที่เป็นที่ปรึกษาและเป็นสัตว์ที่ดูลิตเติ้ ลที่ไว้วางใจและเชื่อถือมากที่สุด!!!

Complete name : [MINI Super-HQ]_Dolittle.2020.1080p.BrRip.DTS.x264.One2loadup.com.mkv
Format : Matroska
Format version : Version 4
File size : 3.97 GiB
Duration : 1 h 41 min
Overall bit rate : 5 612 kb/s
Movie name : [MINI Super-HQ]_Dolittle.2020.1080p.BrRip.DTS.x264.One2loadup.com
Encoded date : UTC 2010-02-22 21:41:31
Writing application : mkvmerge v5.9.0 (‘On The Loose’) built on Dec 9 2012 15:37:01
Writing library : libebml v1.3.0 + libmatroska v1.4.0

Video
ID : 1
Format : AVC
Format/Info : Advanced Video Codec
Format profile : Hi[email protected]
Format settings : CABAC / 4 Ref Frames
Format settings, CABAC : Yes
Format settings, ReFrames : 4 frames
Codec ID : V_MPEG4/ISO/AVC
Duration : 1 h 41 min
Bit rate : 4 250 kb/s
Width : 1 920 pixels
Height : 1 036 pixels
Display aspect ratio : 1.85:1
Frame rate mode : Constant
Frame rate : 23.976 (24000/1001) FPS
Color space : YUV
Chroma subsampling : 4:2:0
Bit depth : 8 bits
Scan type : Progressive
Bits/(Pixel*Frame) : 0.089
Stream size : 3.09 GiB (78%)
Title : [MINI Super-HQ]_Dolittle.2020.1080p.BrRip.DTS.x264.One2loadup.com
Writing library : x264 core 146 r2538 121396c
Encoding settings : cabac=1 / ref=5 / deblock=1:-3:-3 / analyse=0x3:0x133 / me=tesa / subme=11 / psy=1 / psy_rd=1.00:0.15 / mixed_ref=1 / me_range=48 / chroma_me=1 / trellis=2 / 8x8dct=1 / cqm=0 / deadzone=21,11 / fast_pskip=1 / chroma_qp_offset=-3 / threads=54 / lookahead_threads=4 / sliced_threads=0 / nr=0 / decimate=1 / interlaced=0 / bluray_compat=1 / constrained_intra=0 / bframes=3 / b_pyramid=1 / b_adapt=2 / b_bias=0 / direct=3 / weightb=1 / open_gop=0 / weightp=1 / keyint=250 / keyint_min=1 / scenecut=40 / intra_refresh=0 / rc_lookahead=60 / rc=2pass / mbtree=1 / bitrate=4250 / ratetol=1.0 / qcomp=0.60 / qpmin=0 / qpmax=69 / qpstep=4 / cplxblur=20.0 / qblur=0.5 / ip_ratio=1.40 / aq=1:1.30
Language : English
Default : Yes
Forced : No

Audio #1
ID : 2
Format : AC-3
Format/Info : Audio Coding 3
Commercial name : Dolby Digital
Codec ID : A_AC3
Duration : 1 h 41 min
Bit rate mode : Constant
Bit rate : 384 kb/s
Channel(s) : 6 channels
Channel layout : L R C LFE Ls Rs
Sampling rate : 48.0 kHz
Frame rate : 31.250 FPS (1536 SPF)
Bit depth : 16 bits
Compression mode : Lossy
Delay relative to video : 900 ms
Stream size : 279 MiB (7%)
Title : Thai DVD Master
Language : Thai
Service kind : Complete Main
Default : Yes
Forced : Yes

Audio #2
ID : 3
Format : DTS
Format/Info : Digital Theater Systems
Codec ID : A_DTS
Duration : 1 h 41 min
Bit rate mode : Constant
Bit rate : 755 kb/s
Channel(s) : 6 channels
Channel layout : C L R Ls Rs LFE
Sampling rate : 48.0 kHz
Frame rate : 93.750 FPS (512 SPF)
Bit depth : 24 bits
Compression mode : Lossy
Stream size : 547 MiB (13%)
Title : English DTS
Language : English
Default : No
Forced : No

Text #1
ID : 4
Format : VobSub
Codec ID : S_VOBSUB
Codec ID/Info : Picture based subtitle format used on DVDs
Title : Thai 720p
Language : Thai
Default : No
Forced : No

Text #2
ID : 5
Format : VobSub
Codec ID : S_VOBSUB
Codec ID/Info : Picture based subtitle format used on DVDs
Title : Thai 1080p
Language : Thai
Default : Yes
Forced : Yes

Text #3
ID : 6
Format : VobSub
Codec ID : S_VOBSUB
Codec ID/Info : Picture based subtitle format used on DVDs
Title : Thai 1080p Yellow
Language : Thai
Default : No
Forced : No

Text #4
ID : 7
Format : VobSub
Codec ID : S_VOBSUB
Codec ID/Info : Picture based subtitle format used on DVDs
Title : Thai 1080p Low
Language : Thai
Default : No
Forced : No

Text #5
ID : 8
Format : VobSub
Codec ID : S_VOBSUB
Codec ID/Info : Picture based subtitle format used on DVDs
Title : Thai 1080p BIG
Language : Thai
Default : No
Forced : No

Text #6
ID : 9
Format : VobSub
Codec ID : S_VOBSUB
Codec ID/Info : Picture based subtitle format used on DVDs
Title : Thai 1080p Low [BIG]
Language : Thai
Default : No
Forced : No

Text #7
ID : 10
Format : PGS
Codec ID : S_HDMV/PGS
Codec ID/Info : Picture based subtitle format used on BDs/HD-DVDs
Title : Thai PGS
Language : Thai
Default : No
Forced : No

Text #8
ID : 11
Format : PGS
Codec ID : S_HDMV/PGS
Codec ID/Info : Picture based subtitle format used on BDs/HD-DVDs
Title : Thai PGS Yellow
Language : Thai
Default : No
Forced : No

Text #9
ID : 12
Format : PGS
Codec ID : S_HDMV/PGS
Codec ID/Info : Picture based subtitle format used on BDs/HD-DVDs
Title : Thai PGS Low
Language : Thai
Default : No
Forced : No

Text #10
ID : 13
Format : PGS
Codec ID : S_HDMV/PGS
Codec ID/Info : Picture based subtitle format used on BDs/HD-DVDs
Title : English
Language : English
Default : No
Forced : No

DOWNLOAD


PART01 |||| PART02 |||| PART03 |||| PART04

PART01 |||| PART02 |||| PART03 |||| PART04

PART01 |||| PART02 |||| PART03 |||| PART04

PART01 |||| PART02 |||| PART03 |||| PART04

PART01 |||| PART02 |||| PART03 |||| PART04


Leave A Reply

อีเมล์ของคุณจะไม่แสดงให้เห็น Your email address will not be published.

%d bloggers like this: