[MINI Super-HQ] Dark Waters (2019) พลิกน้ำเน่าคดีฉาวโลก [1080p] [พากย์ไทย 5.1 + เสียงอังกฤษ DTS] [บรรยายไทย + อังกฤษ] [เสียงไทย + ซับไทย] [PANDAFILE]

2

โหลดหนัง Dark Waters (2019) พลิกน้ำเน่าคดีฉาวโลก

Dark Waters | December 6, 2019 (United States) Summary: A corporate defense attorney takes on an environmental lawsuit against a chemical company that exposes a lengthy history of pollution.
Countries: United StatesLanguages: English, Korean

เรื่องย่อ Dark Waters (2019) พลิกน้ำเน่าคดีฉาวโลก

อีกหนึ่งผลงานที่คอหนังสายรางวัลต้องปักหมุดเตรียมรอชมกันไว้ได้เลยสำหรับ Dark Waters ภาพยนตร์ดราม่าเข้มข้นที่สร้างมาจากเรื่องจริงผ่านการนำแสดงโดยนักแสดงคุณภาพ มาร์ก รัฟฟาโล ผู้ได้รับการเสนอชื่อเข้าชิง 3 รางวัลออสการ์กับการแปลงโฉมพลิกคาแร็กเตอร์มารับบทเป็น โรเบิร์ต บิลอตต์ ทนายความดีเดือดผู้ยกความเสี่ยงต่อทั้งชีวิตตนเองและครอบครัวเพื่อเดินหน้ากัดไม่ปล่อยต่อคดีความของบร ิษัทยักษ์ใหญ่ ดูปองท์ ผู้ผลิตสารเคมีในรัฐเวสต์เวอร์จิเนียที่ซ่อนความลับด ำมืดอันเกี่ยวข้องกับการเสียชีวิตของผู้บริสุทธิ์ภายในเมืองหลายคน เนื่องด้วยสาเหตุการรั่วไหลของสารเคมีอันตรายร้ายแรงสู่ย่านที่พักอาศัย!!!

Complete name : [MINI Super-HQ]_Dark.Waters.2019.1080p.BrRip.DTS.x264.One2loadup.com.mkv
Format : Matroska
Format version : Version 4
File size : 4.59 GiB
Duration : 2 h 7 min
Overall bit rate : 5 167 kb/s
Movie name : [MINI Super-HQ]_Dark.Waters.2019.1080p.BrRip.DTS.x264.One2loadup.com
Encoded date : UTC 2020-05-21 20:35:14
Writing application : mkvmerge v9.8.0 (‘Kuglblids’) 64bit
Writing library : libebml v1.3.4 + libmatroska v1.4.5

Video
ID : 1
Format : AVC
Format/Info : Advanced Video Codec
Format profile : [email protected]
Format settings : CABAC / 5 Ref Frames
Format settings, CABAC : Yes
Format settings, ReFrames : 5 frames
Codec ID : V_MPEG4/ISO/AVC
Duration : 2 h 7 min
Bit rate : 3 608 kb/s
Width : 1 920 pixels
Height : 804 pixels
Display aspect ratio : 2.40:1
Frame rate mode : Constant
Frame rate : 23.976 (24000/1001) FPS
Color space : YUV
Chroma subsampling : 4:2:0
Bit depth : 8 bits
Scan type : Progressive
Bits/(Pixel*Frame) : 0.097
Stream size : 3.20 GiB (70%)
Title : [MINI Super-HQ]_Dark.Waters.2019.1080p.BrRip.DTS.x264.One2loadup.com
Language : English
Default : Yes
Forced : Yes

Audio #1
ID : 2
Format : AC-3
Format/Info : Audio Coding 3
Commercial name : Dolby Digital
Codec ID : A_AC3
Duration : 2 h 6 min
Bit rate mode : Constant
Bit rate : 448 kb/s
Channel(s) : 6 channels
Channel layout : L R C LFE Ls Rs
Sampling rate : 48.0 kHz
Frame rate : 31.250 FPS (1536 SPF)
Bit depth : 16 bits
Compression mode : Lossy
Stream size : 407 MiB (9%)
Title : Thai DVD Master
Language : Thai
Service kind : Complete Main
Default : Yes
Forced : Yes

Audio #2
ID : 3
Format : DTS
Format/Info : Digital Theater Systems
Codec ID : A_DTS
Duration : 2 h 7 min
Bit rate mode : Constant
Bit rate : 755 kb/s
Channel(s) : 6 channels
Channel layout : C L R Ls Rs LFE
Sampling rate : 48.0 kHz
Frame rate : 93.750 FPS (512 SPF)
Bit depth : 24 bits
Compression mode : Lossy
Stream size : 686 MiB (15%)
Title : English DTS
Language : English
Default : No
Forced : No

Text #1
ID : 4
Format : VobSub
Codec ID : S_VOBSUB
Codec ID/Info : Picture based subtitle format used on DVDs
Duration : 2 h 2 min
Bit rate : 6 416 b/s
Count of elements : 1550
Stream size : 5.61 MiB (0%)
Title : Thai 720p
Language : Thai
Default : No
Forced : No

Text #2
ID : 5
Format : VobSub
Codec ID : S_VOBSUB
Codec ID/Info : Picture based subtitle format used on DVDs
Duration : 2 h 2 min
Bit rate : 11.7 kb/s
Count of elements : 1550
Stream size : 10.2 MiB (0%)
Title : Thai 1080p
Language : Thai
Default : Yes
Forced : Yes

Text #3
ID : 6
Format : VobSub
Codec ID : S_VOBSUB
Codec ID/Info : Picture based subtitle format used on DVDs
Duration : 2 h 2 min
Bit rate : 11.7 kb/s
Count of elements : 1550
Stream size : 10.2 MiB (0%)
Title : Thai 1080p Yellow
Language : Thai
Default : No
Forced : No

Text #4
ID : 7
Format : VobSub
Codec ID : S_VOBSUB
Codec ID/Info : Picture based subtitle format used on DVDs
Duration : 2 h 2 min
Bit rate : 16.1 kb/s
Count of elements : 1550
Stream size : 14.1 MiB (0%)
Title : Thai 1080p Big
Language : Thai
Default : No
Forced : No

Text #5
ID : 8
Format : PGS
Codec ID : S_HDMV/PGS
Codec ID/Info : Picture based subtitle format used on BDs/HD-DVDs
Duration : 2 h 2 min
Bit rate : 49.2 kb/s
Count of elements : 3100
Stream size : 43.0 MiB (1%)
Title : Thai 1080p Out
Language : Thai
Default : No
Forced : No

Text #6
ID : 9
Format : PGS
Codec ID : S_HDMV/PGS
Codec ID/Info : Picture based subtitle format used on BDs/HD-DVDs
Duration : 2 h 2 min
Bit rate : 49.2 kb/s
Count of elements : 3100
Stream size : 43.0 MiB (1%)
Title : Thai 1080p PGS
Language : Thai
Default : No
Forced : No

Text #7
ID : 10
Format : PGS
Codec ID : S_HDMV/PGS
Codec ID/Info : Picture based subtitle format used on BDs/HD-DVDs
Duration : 2 h 2 min
Bit rate : 49.3 kb/s
Count of elements : 3100
Stream size : 43.1 MiB (1%)
Title : Thai 1080p Yellow PGS
Language : Thai
Default : No
Forced : No

Text #8
ID : 11
Format : PGS
Codec ID : S_HDMV/PGS
Codec ID/Info : Picture based subtitle format used on BDs/HD-DVDs
Duration : 2 h 2 min
Bit rate : 73.9 kb/s
Count of elements : 3100
Stream size : 64.6 MiB (1%)
Title : Thai 1080p Big PGS
Language : Thai
Default : No
Forced : No

Text #9
ID : 12
Format : PGS
Codec ID : S_HDMV/PGS
Codec ID/Info : Picture based subtitle format used on BDs/HD-DVDs
Duration : 2 h 2 min
Bit rate : 46.5 kb/s
Count of elements : 3100
Stream size : 40.7 MiB (1%)
Title : Thai 1080p Out PGS
Language : Thai
Default : No
Forced : No

Text #10
ID : 13
Format : PGS
Codec ID : S_HDMV/PGS
Codec ID/Info : Picture based subtitle format used on BDs/HD-DVDs
Duration : 2 h 3 min
Bit rate : 52.6 kb/s
Count of elements : 3966
Stream size : 46.5 MiB (1%)
Title : English
Language : English
Default : No
Forced : No

Menu
00:00:00.000 : en:01
00:10:08.191 : en:02
00:18:18.431 : en:03
00:28:20.449 : en:04
00:36:48.957 : en:05
00:44:45.892 : en:06
00:50:17.056 : en:07
01:04:17.395 : en:08
01:08:46.080 : en:09
01:17:23.639 : en:10
01:23:51.151 : en:11
01:25:32.002 : en:12
01:31:40.995 : en:13
01:36:14.978 : en:14
01:38:55.763 : en:15
01:42:26.724 : en:16
01:45:11.180 : en:17
01:50:32.084 : en:18
02:00:16.584 : en:19
02:02:02.565 : en:20

DOWNLOAD


PART01 |||| PART02 |||| PART03 |||| PART04 |||| PART05

PART01 |||| PART02 |||| PART03 |||| PART04 |||| PART05

PART01 |||| PART02 |||| PART03 |||| PART04 |||| PART05

PART01 |||| PART02 |||| PART03 |||| PART04 |||| PART05

PART01 |||| PART02 |||| PART03 |||| PART04 |||| PART05


2 Comments
  1. Thawatchai
    Thawatchai says

    ยังไม่ได้อัพโหลดครับ

    1. Admin
      Admin says

      แก้ไขเรียบร้อยยฮ๊ะ

Leave A Reply

อีเมล์ของคุณจะไม่แสดงให้เห็น Your email address will not be published.

%d bloggers like this: