[MINI Super-HQ] Crazy Stupid Love (2011) โง่..เซ่อ..บ้า เพราะว่าความรัก [1080p] [พากย์ไทย 5.1 + เสียงอังกฤษ DTS] [บรรยายไทย + อังกฤษ] [เสียงไทย + ซับไทย] [OPENLOAD]

0

โหลดหนัง  Crazy Stupid Love (2011) โง่..เซ่อ..บ้า เพราะว่าความรัก 

Crazy, Stupid, Love. (2011) 1h 58min | Comedy, Drama, Romance | 8 September 2011 (Netherlands) Summary: A middle-aged husband's life changes dramatically when his wife asks him for a divorce. He seeks to rediscover his manhood with the help of a newfound friend, Jacob, learning to pick up girls at bars.
Countries: USALanguages: English

เรื่องย่อ Crazy Stupid Love (2011) โง่..เซ่อ..บ้า เพราะว่าความรัก

สตีฟ แคเรลล์ รับบทเป็นคาล พ่อบ้านที่เย็นชาจนภรรยา (จูลี่แอน มัวร์) แอบไปมีชู้ และขอหย่า เลยไปขอคำแนะนำจากเจค็อบ เสือผู้หญิงที่ได้ไรอัน กอสลิ่ง มารับบท (และกอสลิ่งไปฟิตหุ่นมาแสดงบทนี้จนกำยำมาก) ผู้มาเปลี่ยนคาลให้ดูมีเสน่ห์ในสายตาผู้หญิง และก็ทำให้คาลเป็นเสือผู้หญิงไปอีกคนแต่เจค็อบเองก็มีปัญหารักส่วนตัวของเขาเองเช่นกัน เมื่อไปตกหลุมรักผู้หญิงคนหนึ่งเข้า (รับบทโดยเอ็มมา สโตน) ซึ่งใช้ไม้เด็ดยังไง เธอก็ไม่ยอมเล่นด้วย และเขากลับต้องเป็นคนมาขอคำแนะนำจากคาลเองเรื่องยังไม่จบแค่นั้น เพราะร็อบบี้ (โจนาห์ โบโบ) ลูกชายของคาลก็เกิดไปหลงรักพี่เลี้ยงสาวคนสวย (อนาลีห์ ทิปตัน) แต่เธอกลับมาหลงรักคาลแทน!!!

Complete name : [MINI Super-HQ]_Crazy.Stupid.Love.2011.1080p.BrRip.DTS.x264.One2loadup.com.mkv
Format : Matroska
Format version : Version 4
File size : 3.84 GiB
Duration : 1 h 58 min
Overall bit rate : 4 653 kb/s
Movie name : [MINI Super-HQ]_Crazy.Stupid.Love.2011.1080p.BrRip.DTS.x264.One2loadup.com
Encoded date : UTC 2019-02-13 12:44:20
Writing application : mkvmerge v31.0.0 (‘Dolores In A Shoestand’) 64-bit
Writing library : libebml v1.3.6 + libmatroska v1.4.9

Video
ID : 1
Format : AVC
Format/Info : Advanced Video Codec
Format profile : [email protected]
Format settings : CABAC / 8 Ref Frames
Format settings, CABAC : Yes
Format settings, ReFrames : 8 frames
Codec ID : V_MPEG4/ISO/AVC
Duration : 1 h 58 min
Bit rate : 3 200 kb/s
Width : 1 920 pixels
Height : 800 pixels
Display aspect ratio : 2.40:1
Frame rate mode : Constant
Frame rate : 23.976 (24000/1001) FPS
Color space : YUV
Chroma subsampling : 4:2:0
Bit depth : 8 bits
Scan type : Progressive
Bits/(Pixel*Frame) : 0.087
Stream size : 2.64 GiB (69%)
Title : [MINI Super-HQ]_Crazy.Stupid.Love.2011.1080p.BrRip.DTS.x264.One2loadup.com
Writing library : x264 core 146 r2538 121396c
Encoding settings : cabac=1 / ref=8 / deblock=1:-1:-1 / analyse=0x3:0x133 / me=tesa / subme=11 / psy=1 / psy_rd=1.00:0.15 / mixed_ref=1 / me_range=24 / chroma_me=1 / trellis=2 / 8x8dct=1 / cqm=0 / deadzone=21,11 / fast_pskip=1 / chroma_qp_offset=-3 / threads=9 / lookahead_threads=1 / sliced_threads=0 / nr=0 / decimate=1 / interlaced=0 / bluray_compat=0 / constrained_intra=0 / bframes=5 / b_pyramid=2 / b_adapt=2 / b_bias=0 / direct=3 / weightb=1 / open_gop=0 / weightp=2 / keyint=250 / keyint_min=23 / scenecut=40 / intra_refresh=0 / rc_lookahead=60 / rc=2pass / mbtree=1 / bitrate=3200 / ratetol=1.0 / qcomp=0.60 / qpmin=0 / qpmax=69 / qpstep=4 / cplxblur=20.0 / qblur=0.5 / ip_ratio=1.40 / aq=1:1.30
Language : English
Default : Yes
Forced : No

Audio #1
ID : 2
Format : AC-3
Format/Info : Audio Coding 3
Commercial name : Dolby Digital
Codec ID : A_AC3
Duration : 1 h 58 min
Bit rate mode : Constant
Bit rate : 640 kb/s
Channel(s) : 6 channels
Channel layout : L R C LFE Ls Rs
Sampling rate : 48.0 kHz
Frame rate : 31.250 FPS (1536 SPF)
Bit depth : 16 bits
Compression mode : Lossy
Stream size : 541 MiB (14%)
Title : Thai Martes 5.1
Language : Thai
Service kind : Complete Main
Default : Yes
Forced : Yes

Audio #2
ID : 3
Format : DTS
Format/Info : Digital Theater Systems
Codec ID : A_DTS
Duration : 1 h 58 min
Bit rate mode : Constant
Bit rate : 755 kb/s
Channel(s) : 6 channels
Channel layout : C L R Ls Rs LFE
Sampling rate : 48.0 kHz
Frame rate : 93.750 FPS (512 SPF)
Bit depth : 24 bits
Compression mode : Lossy
Stream size : 637 MiB (16%)
Title : English DTS
Language : English
Default : No
Forced : No

Text #1
ID : 4
Format : VobSub
Muxing mode : zlib
Codec ID : S_VOBSUB
Codec ID/Info : Picture based subtitle format used on DVDs
Duration : 1 h 57 min
Bit rate : 2 588 b/s
Count of elements : 1585
Stream size : 2.17 MiB (0%)
Title : Thai Vob 480p
Language : Thai
Default : No
Forced : No

Text #2
ID : 5
Format : VobSub
Muxing mode : zlib
Codec ID : S_VOBSUB
Codec ID/Info : Picture based subtitle format used on DVDs
Duration : 1 h 57 min
Bit rate : 5 248 b/s
Count of elements : 1585
Stream size : 4.40 MiB (0%)
Title : Thai Vob 720p
Language : Thai
Default : No
Forced : No

Text #3
ID : 6
Format : VobSub
Muxing mode : zlib
Codec ID : S_VOBSUB
Codec ID/Info : Picture based subtitle format used on DVDs
Duration : 1 h 57 min
Bit rate : 9 418 b/s
Count of elements : 1585
Stream size : 7.90 MiB (0%)
Title : Thai Vob 1080p
Language : Thai
Default : No
Forced : No

Text #4
ID : 7
Format : PGS
Muxing mode : zlib
Codec ID : S_HDMV/PGS
Codec ID/Info : Picture based subtitle format used on BDs/HD-DVDs
Duration : 1 h 57 min
Bit rate : 30.8 kb/s
Count of elements : 3180
Stream size : 25.8 MiB (1%)
Title : Thai In PGS
Language : Thai
Default : Yes
Forced : Yes

Text #5
ID : 8
Format : PGS
Muxing mode : zlib
Codec ID : S_HDMV/PGS
Codec ID/Info : Picture based subtitle format used on BDs/HD-DVDs
Duration : 1 h 57 min
Bit rate : 30.7 kb/s
Count of elements : 3170
Stream size : 25.8 MiB (1%)
Title : Thai Out PGS
Language : Thai
Default : No
Forced : No

Text #6
ID : 9
Format : PGS
Muxing mode : zlib
Codec ID : S_HDMV/PGS
Codec ID/Info : Picture based subtitle format used on BDs/HD-DVDs
Duration : 1 h 57 min
Bit rate : 38.6 kb/s
Count of elements : 3598
Stream size : 32.5 MiB (1%)
Title : Eng PGS
Language : English
Default : No
Forced : No

Menu
00:00:00.000 : en:00:00:00.000
00:08:25.714 : en:00:08:25.714
00:20:56.422 : en:00:20:56.422
00:28:40.552 : en:00:28:40.552
00:38:32.560 : en:00:38:32.560
00:51:33.674 : en:00:51:33.674
01:02:41.007 : en:01:02:41.007
01:11:00.548 : en:01:11:00.548
01:21:12.117 : en:01:21:12.117
01:28:07.199 : en:01:28:07.199
01:40:51.963 : en:01:40:51.963
01:48:00.808 : en:01:48:00.808
01:52:20.525 : en:01:52:20.525

DOWNLOAD


PART01 |||| PART02 |||| PART03 |||| PART04

PART01 |||| PART02 |||| PART03 |||| PART04

PART01 |||| PART02 |||| PART03 |||| PART04

PART01 |||| PART02 |||| PART03 |||| PART04


Leave A Reply

Your email address will not be published.

%d bloggers like this: