[MINI Super-HQ] Charlie’s Angels: Full Throttle (2003) นางฟ้าชาร์ลี: เสน่ห์เข้มทะลุพิกัด ภาค 1 [1080p] [พากย์ไทย 5.1 + เสียงอังกฤษ DTS] [บรรยายไทย + อังกฤษ] [เสียงไทย + ซับไทย] [OPENLOAD]

2

Charlie's Angels: Full Throttle (2003)

โหลดหนัง Charlie’s Angels: Full Throttle (2003) นางฟ้าชาร์ลี: เสน่ห์เข้มทะลุพิกัด ภาค 1

Charlie's Angels: Full Throttle (2003) 1h 46min | Action, Adventure, Comedy | 3 July 2003 (Netherlands) Summary: The Angels investigate a series of murders which occur after the theft of a witness protection profile database.
Countries: USALanguages: English, Mandarin, Spanish

เรื่องย่อ Charlie’s Angels: Full Throttle (2003) นางฟ้าชาร์ลี: เสน่ห์เข้มทะลุพิกัด ภาค 1

พวกเธอสวย พวกเธอบู๊ และพวกเธอทำงานให้ชาร์ลี… เหล่านางฟ้าพร้อมแล้ว ที่จะเข้าจู่โจมโดยที่คุณไม่ทันตั้งตัวเมื่อเธอต้องปลอมตัวเข้าไปเพื่อค้นหาแหวนแต่งงานล้ำค่าที่ไม่ธรรมดาสองวงที่หายไป มันไม่ใช่ของธรรมดา เพราะมันบรรจุข้อมูลล้ำค่าที่เปิดเผยตัวตนใหม่ของทุกคนที่อยู่ในโครงการคุ้มกันพยานของรัฐ เมื่อพยานเริ่มตายไปทีละคน มีเพียงเหล่านางฟ้าอย่าง นาตาลี คุ๊ก (คาเมรอน ดิแอซ), ดิแลน แซนเดอร์ส (ดรูว์ แบร์รี่มอร์) และ อเล็กซ์ มันเดย์ (ลูซี่ ลิว) เท่านั้น ที่สามารถใช้ความเชี่ยวชาญในด้านการปลอมตัว, การจารกรรม และศิลปะการต่อสู้ เพื่อหยุดคนร้าย ซึ่งเป็นอดีตนางฟ้าตกสวรรค์ที่แสนลึกลับ แมดิสัน ลี (เดมี่ มัวร์) เมื่อได้รับความช่วยเหลือจากเพื่อนร่วมงาน ที่ไว้ใจได้อย่าง จิมมี่ บอสลีย์ (เบอร์นี่ แม็ค) การผจญภัยของเหล่านางฟ้าจึงเริ่มต้นขึ้น ณ ด่านที่ห่างไกลในมองโกเลีย และยุติลงหลังจากดิแลน ถูกบังคับให้ต้องเผชิญหน้า กับความลับจากอดีตของเธอ เป็นความลับซึ่งทำให้ชีวิตของเพื่อนรักสองคน ต้องตกอยู่ในอันตรายอรุณสวัสดิ์เหล่านางฟ้า… ถึงเวลาซ่าส์ท้านรกกัน(อีก)แล้ว!

Complete name : [MINI Super-HQ]_Charlie.s.Angels.Full.Throttle.2003.1080p.BrRip.DTS.x264.One2loadup.com.mkv
Format : Matroska
Format version : Version 4
File size : 4.34 GiB
Duration : 1 h 47 min
Overall bit rate : 5 805 kb/s
Movie name : [MINI Super-HQ]_Charlie’s.Angels.Full.Throttle.2003.1080p.BrRip.DTS.x264.One2loadup.com
Encoded date : UTC 2015-05-25 02:05:16
Writing application : mkvmerge v7.8.0 (‘River Man’) 32bit built on Mar 27 2015 16:18:02
Writing library : libebml v1.3.1 + libmatroska v1.4.2
Cover : Yes
Attachments : cover_land.png / cover.png

Video
ID : 1
Format : AVC
Format/Info : Advanced Video Codec
Format profile : [email protected]
Format settings : CABAC / 5 Ref Frames
Format settings, CABAC : Yes
Format settings, ReFrames : 5 frames
Codec ID : V_MPEG4/ISO/AVC
Duration : 1 h 47 min
Bit rate : 4 517 kb/s
Width : 1 920 pixels
Height : 800 pixels
Display aspect ratio : 2.40:1
Frame rate mode : Constant
Frame rate : 23.976 (24000/1001) FPS
Color space : YUV
Chroma subsampling : 4:2:0
Bit depth : 8 bits
Scan type : Progressive
Bits/(Pixel*Frame) : 0.123
Stream size : 3.36 GiB (77%)
Title : [MINI Super-HQ]_Charlie’s.Angels.Full.Throttle.2003.1080p.BrRip.DTS.x264.One2loadup.com
Writing library : x264 core 146 r2538 121396c
Encoding settings : cabac=1 / ref=5 / deblock=1:-3:-3 / analyse=0x3:0x113 / me=umh / subme=11 / psy=1 / psy_rd=1.00:0.20 / mixed_ref=1 / me_range=48 / chroma_me=1 / trellis=2 / 8x8dct=1 / cqm=0 / deadzone=21,11 / fast_pskip=0 / chroma_qp_offset=-3 / threads=24 / lookahead_threads=2 / sliced_threads=0 / nr=0 / decimate=1 / interlaced=0 / bluray_compat=0 / constrained_intra=0 / bframes=5 / b_pyramid=2 / b_adapt=1 / b_bias=0 / direct=3 / weightb=1 / open_gop=0 / weightp=1 / keyint=250 / keyint_min=23 / scenecut=40 / intra_refresh=0 / rc_lookahead=100 / rc=2pass / mbtree=1 / bitrate=4517 / ratetol=1.0 / qcomp=0.60 / qpmin=0 / qpmax=69 / qpstep=4 / cplxblur=20.0 / qblur=0.5 / vbv_maxrate=14000 / vbv_bufsize=14000 / nal_hrd=none / filler=0 / ip_ratio=1.40 / aq=1:1.00
Language : English
Default : Yes
Forced : No

Audio #1
ID : 2
Format : AC-3
Format/Info : Audio Coding 3
Commercial name : Dolby Digital
Codec ID : A_AC3
Duration : 1 h 47 min
Bit rate mode : Constant
Bit rate : 448 kb/s
Channel(s) : 6 channels
Channel layout : L R C LFE Ls Rs
Sampling rate : 48.0 kHz
Frame rate : 31.250 FPS (1536 SPF)
Bit depth : 16 bits
Compression mode : Lossy
Stream size : 343 MiB (8%)
Title : AC3 BD MASTER
Language : Thai
Service kind : Complete Main
Default : Yes
Forced : Yes

Audio #2
ID : 3
Format : DTS
Format/Info : Digital Theater Systems
Codec ID : A_DTS
Duration : 1 h 47 min
Bit rate mode : Constant
Bit rate : 755 kb/s
Channel(s) : 6 channels
Channel layout : C L R Ls Rs LFE
Sampling rate : 48.0 kHz
Frame rate : 93.750 FPS (512 SPF)
Bit depth : 24 bits
Compression mode : Lossy
Stream size : 578 MiB (13%)
Title : DTS
Language : English
Default : No
Forced : No

Text #1
ID : 4
Format : VobSub
Codec ID : S_VOBSUB
Codec ID/Info : Picture based subtitle format used on DVDs
Title : 1080P YELLOW
Language : Thai
Default : Yes
Forced : Yes

Text #2
ID : 5
Format : VobSub
Codec ID : S_VOBSUB
Codec ID/Info : Picture based subtitle format used on DVDs
Title : 1080P
Language : Thai
Default : No
Forced : No

Text #3
ID : 6
Format : VobSub
Codec ID : S_VOBSUB
Codec ID/Info : Picture based subtitle format used on DVDs
Title : 1080P UNDER
Language : Thai
Default : No
Forced : No

Text #4
ID : 7
Format : VobSub
Codec ID : S_VOBSUB
Codec ID/Info : Picture based subtitle format used on DVDs
Title : 480P
Language : Thai
Default : No
Forced : No

Text #5
ID : 8
Format : PGS
Codec ID : S_HDMV/PGS
Codec ID/Info : Picture based subtitle format used on BDs/HD-DVDs
Title : BD MASTER
Language : Thai
Default : No
Forced : No

Text #6
ID : 9
Format : PGS
Codec ID : S_HDMV/PGS
Codec ID/Info : Picture based subtitle format used on BDs/HD-DVDs
Title : BD UNDER
Language : Thai
Default : No
Forced : No

Text #7
ID : 10
Format : PGS
Codec ID : S_HDMV/PGS
Codec ID/Info : Picture based subtitle format used on BDs/HD-DVDs
Title : BD MASTER
Language : English
Default : No
Forced : No

Menu
00:00:00.000 : en:Chapter 1
00:09:06.312 : en:Chapter 2
00:13:05.509 : en:Chapter 3
00:19:36.775 : en:Chapter 4
00:29:12.934 : en:Chapter 5
00:36:28.327 : en:Chapter 6
00:46:09.742 : en:Chapter 7
00:51:52.959 : en:Chapter 8
00:56:59.933 : en:Chapter 9
01:03:13.723 : en:Chapter 10
01:06:59.240 : en:Chapter 11
01:13:53.278 : en:Chapter 12
01:19:54.181 : en:Chapter 13
01:26:50.638 : en:Chapter 14
01:31:32.795 : en:Chapter 15
01:36:28.007 : en:Chapter 16

DOWNLOAD


PART01 |||| PART02 |||| PART03 |||| PART04 |||| PART05

PART01 |||| PART02 |||| PART03 |||| PART04 |||| PART05

PART01 |||| PART02 |||| PART03 |||| PART04 |||| PART05

PART01 |||| PART02 |||| PART03 |||| PART04 |||| PART05


2 Comments
  1. Thana Kongsuk
    Thana Kongsuk says

    โหลดไม่ได้

    1. Admin
      Admin says

      ติดปัญหาอะไรหว่า

Leave A Reply

Your email address will not be published.

%d bloggers like this: