[MINI Super-HQ] Blind (2017) เล่ห์รักบอด [1080p] [พากย์ไทย 5.1 + เสียงอังกฤษ DTS] [บรรยายไทย + อังกฤษ] [เสียงไทย + ซับไทย] [OPENLOAD]

0

Blind (2017) เล่ห์รักบอด

โหลดหนัง Blind (2017) เล่ห์รักบอด

Blind (2017) 1h 38min | Drama, Romance | 24 August 2017 (Kuwait) Summary: A novelist blinded in a car crash which killed his wife rediscovers his passion for both life and writing when he embarks on an affair with the neglected wife of an indicted businessman.
Countries: USALanguages: English

เรื่องย่อ Blind (2017) เล่ห์รักบอด

ซูซาน (เดมี มัวร์) และ มาร์ก (ดีแลน แม็คเดอร์มอตต์) เป็นคู่สามีภรรยาที่เหมือนจะน่าอิจฉาในสายตาใคร ๆ ทั้งที่ความจริงแล้วชีวิตรักของทั้งคู่ไม่ได้สวยหรูขนาดนั้น ก่อนที่วันหนึ่งมาร์กจะถูกจับกุมด้วยความผิดหลายข้อหาและต้องเข้าคุก ซูซานเองแม้จะไม่มีส่วนรู้เห็นด้วยแต่ก็โดนลูกหลงถูกจับด้วยอย่างไรก็ตามศาลยังเมตตาตัดสินให้เธอแค่ต้องทำงานรับใช้สังคมด้วยการช่วยเหลือ บิล โอกแลนด์ (อเล็ก บอลด์วิน) อดีตนักเขียนซึ่งประสบอุบัติเหตุจนตาบอดด้วยการอ่านหนังสือให้เขาฟังจากความสัมพันธ์ที่ดูเหมือนไม่มีอะไรเกินเลยแต่เมื่อใกล้ชิดกันบ่อยเข้า ซูซานและบิลก็เริ่มมีใจให้กันมากขึ้นทุกอย่างผ่านไปด้วยดีจนกระทั่งมาร์กรู้เรื่องเข้า!!!

Complete name : [MINI Super-HQ]_Blind.2017.1080p.BrRip.DTS.x264.One2loadup.com.mkv
Format : Matroska
Format version : Version 4
File size : 3.98 GiB
Duration : 1 h 45 min
Overall bit rate : 5 402 kb/s
Movie name : [MINI Super-HQ]_Blind.2017.1080p.BrRip.DTS.x264.One2loadup.com
Encoded date : UTC 2010-02-22 21:41:31
Writing application : mkvmerge v5.9.0 (‘On The Loose’) built on Dec 9 2012 15:37:01
Writing library : libebml v1.3.0 + libmatroska v1.4.0

Video
ID : 1
Format : AVC
Format/Info : Advanced Video Codec
Format profile : [email protected]
Format settings : CABAC / 5 Ref Frames
Format settings, CABAC : Yes
Format settings, ReFrames : 5 frames
Muxing mode : Header stripping
Codec ID : V_MPEG4/ISO/AVC
Duration : 1 h 45 min
Bit rate : 4 004 kb/s
Width : 1 920 pixels
Height : 800 pixels
Display aspect ratio : 2.40:1
Frame rate mode : Constant
Frame rate : 23.976 (24000/1001) FPS
Color space : YUV
Chroma subsampling : 4:2:0
Bit depth : 8 bits
Scan type : Progressive
Bits/(Pixel*Frame) : 0.109
Stream size : 3.02 GiB (76%)
Title : [MINI Super-HQ]_Blind.2017.1080p.BrRip.DTS.x264.One2loadup.com
Writing library : x264 core 157 r2935 545de2f
Encoding settings : cabac=1 / ref=5 / deblock=1:0:0 / analyse=0x3:0x133 / me=umh / subme=10 / psy=1 / psy_rd=1.00:0.00 / mixed_ref=1 / me_range=24 / chroma_me=1 / trellis=2 / 8x8dct=1 / cqm=0 / deadzone=21,11 / fast_pskip=1 / chroma_qp_offset=-2 / threads=10 / lookahead_threads=1 / sliced_threads=0 / nr=0 / decimate=1 / interlaced=0 / bluray_compat=0 / constrained_intra=0 / bframes=8 / b_pyramid=2 / b_adapt=2 / b_bias=0 / direct=3 / weightb=1 / open_gop=0 / weightp=2 / keyint=240 / keyint_min=24 / scenecut=40 / intra_refresh=0 / rc_lookahead=60 / rc=2pass / mbtree=1 / bitrate=4004 / ratetol=1.0 / qcomp=0.60 / qpmin=0 / qpmax=69 / qpstep=4 / cplxblur=20.0 / qblur=0.5 / vbv_maxrate=25000 / vbv_bufsize=31250 / nal_hrd=none / filler=0 / ip_ratio=1.40 / aq=1:1.00
Language : English
Default : Yes
Forced : No
Color range : Limited
Color primaries : BT.709
Transfer characteristics : BT.709
Matrix coefficients : BT.709

Audio #1
ID : 2
Format : AC-3
Format/Info : Audio Coding 3
Commercial name : Dolby Digital
Codec ID : A_AC3
Duration : 1 h 45 min
Bit rate mode : Constant
Bit rate : 448 kb/s
Channel(s) : 6 channels
Channel layout : L R C LFE Ls Rs
Sampling rate : 48.0 kHz
Frame rate : 31.250 FPS (1536 SPF)
Bit depth : 16 bits
Compression mode : Lossy
Stream size : 338 MiB (8%)
Title : Thai DVD Master
Language : Thai
Service kind : Complete Main
Default : Yes
Forced : Yes

Audio #2
ID : 3
Format : DTS
Format/Info : Digital Theater Systems
Muxing mode : Header stripping
Codec ID : A_DTS
Duration : 1 h 45 min
Bit rate mode : Constant
Bit rate : 755 kb/s
Channel(s) : 6 channels
Channel layout : C L R Ls Rs LFE
Sampling rate : 48.0 kHz
Frame rate : 93.750 FPS (512 SPF)
Bit depth : 24 bits
Compression mode : Lossy
Stream size : 570 MiB (14%)
Title : English DTS
Language : English
Default : No
Forced : No

Text #1
ID : 4
Format : VobSub
Codec ID : S_VOBSUB
Codec ID/Info : Picture based subtitle format used on DVDs
Title : Thai 480p DVD Master
Language : Thai
Default : No
Forced : No

Text #2
ID : 5
Format : VobSub
Codec ID : S_VOBSUB
Codec ID/Info : Picture based subtitle format used on DVDs
Title : Thai 720p
Language : Thai
Default : No
Forced : No

Text #3
ID : 6
Format : VobSub
Codec ID : S_VOBSUB
Codec ID/Info : Picture based subtitle format used on DVDs
Title : Thai 1080p
Language : Thai
Default : Yes
Forced : Yes

Text #4
ID : 7
Format : VobSub
Codec ID : S_VOBSUB
Codec ID/Info : Picture based subtitle format used on DVDs
Title : Thai 1080p Yellow
Language : Thai
Default : No
Forced : No

Text #5
ID : 8
Format : VobSub
Codec ID : S_VOBSUB
Codec ID/Info : Picture based subtitle format used on DVDs
Title : Thai 1080p Out
Language : Thai
Default : No
Forced : No

Text #6
ID : 9
Format : VobSub
Codec ID : S_VOBSUB
Codec ID/Info : Picture based subtitle format used on DVDs
Title : Thai 1080p BIG
Language : Thai
Default : No
Forced : No

Text #7
ID : 10
Format : VobSub
Codec ID : S_VOBSUB
Codec ID/Info : Picture based subtitle format used on DVDs
Title : Thai 1080p Out [BIG]
Language : Thai
Default : No
Forced : No

Text #8
ID : 11
Format : PGS
Codec ID : S_HDMV/PGS
Codec ID/Info : Picture based subtitle format used on BDs/HD-DVDs
Title : Thai PGS
Language : Thai
Default : No
Forced : No

Text #9
ID : 12
Format : PGS
Codec ID : S_HDMV/PGS
Codec ID/Info : Picture based subtitle format used on BDs/HD-DVDs
Title : Thai PGS Yellow
Language : Thai
Default : No
Forced : No

Text #10
ID : 13
Format : PGS
Codec ID : S_HDMV/PGS
Codec ID/Info : Picture based subtitle format used on BDs/HD-DVDs
Title : Thai PGS Out
Language : Thai
Default : No
Forced : No

Text #11
ID : 14
Format : VobSub
Codec ID : S_VOBSUB
Codec ID/Info : Picture based subtitle format used on DVDs
Title : English
Language : English
Default : No
Forced : No

Menu
00:00:00.000 : :00:00:00.000
00:09:21.728 : :00:09:21.603
00:22:02.071 : :00:22:02.029
00:37:34.335 : :00:37:34.169
00:49:18.539 : :00:49:18.456
01:02:17.025 : :01:02:16.942
01:15:36.824 : :01:15:36.657
01:28:19.836 : :01:28:19.753

 

DOWNLOAD


PART01 |||| PART02 |||| PART03 |||| PART04

PART01 |||| PART02 |||| PART03 |||| PART04

PART01 |||| PART02 |||| PART03 |||| PART04

PART01 |||| PART02 |||| PART03 |||| PART04


Leave A Reply

Your email address will not be published.

%d bloggers like this: