[MINI Super-HQ] Belleville Cop /OR Le flic de Belleville (2018) โคตรโปลิส มือวางอันดับแสบ [1080p] [พากย์ไทย 5.1 + เสียงฝรั่งเศส DTS] [บรรยายไทย + อังกฤษ] [เสียงไทย + ซับไทย] [OPENLOAD]

1

โหลดหนัง Belleville Cop /OR Le flic de Belleville (2018) โคตรโปลิส มือวางอันดับแสบ

Le flic de Belleville (2018) 1h 51min | Comedy, Crime | 17 October 2018 (France) Summary: When a childhood friend from Miami gets killed after he comes to warn of encroaching drug gangs, Baaba moves to Miami and teams up with a local officer to bring down the criminals.
Countries: FranceLanguages: English, Spanish, French

เรื่องย่อ Belleville Cop /OR Le flic de Belleville (2018) โคตรโปลิส มือวางอันดับแสบ

ถ้าชีวิตมันเครียดนัก! เราขอแนะนำให้คุณรู้จักกับ เซบาสเตียน บาบา บูชาร์ด์ (โอมาร์ ซี) จากภาพยนตร์เรื่องล่าสุด Belleville Cop โคตรโปลิส มือวางอันดับแสบ ผู้ชายคนนี้เกิดและโตในย่านเบลล์วิลล์ กรุงปารีส ประเทศฝรั่งเศส เขาเป็นที่รู้จักในฐานะตำรวจท้องถิ่น มีทักษะความสามารถทางด้านกังฟู เขาแน่วแน่ต่อหน้าที่ เถรตรง สุดโต่งแต่ทุกอย่างในตัวเขาดันลงตัวอย่างมีเสน่ห์สุดพลัง กระทั่งคืนหนึ่ง โรแลนด์ เพื่อนซี้สมัยเด็กของเขาถูกฆ่าตายไปต่อหน้าต่อตากลาง ร้านอาหารโรแลนด์เป็นเจ้าหน้าที่กงสุลใหญ่ของฝรั่งเศสในไมอามี ที่กำลังตามสืบเรื่องการลักลอบขนยาเสพติดจากไมอามีมา ปารีส นี่คือเหตุผลที่ทำให้ตำรวจหนุ่มเซบาสเตียนต้องออกเดินทางไปยังไมอามีเพื่อสืบหาความจริงว่า ใครเป็นผู้อยู่เบื้องหลังการตายของเพื่อนรักและตามล่าหัวมันลงโทษให้ได้! แต่งานนี้ดูเหมือนจะไม่ง่าย เพราะเขาต้องแท็กทีมกับ ริคาร์โด การ์เซีย (ลุยซ์ กุซแมน) ตำรวจพื้นที่จอมกะล่อนแห่งไมอามี ปลิ้นปล้อนจนโจรยังต้องคารวะ จากภารกิจบู๊กระจุยดันลุยเป็นความมันส์ฮากระจาย!!!

Complete name : [MINI Super-HQ]_Belleville.Cop.2019.1080p.BrRip.DTS.x264.One2loadup.com.mkv
Format : Matroska
Format version : Version 4
File size : 4.00 GiB
Duration : 1 h 51 min
Overall bit rate : 5 146 kb/s
Movie name : [MINI Super-HQ]_Belleville.Cop.2019.1080p.BrRip.DTS.x264.One2loadup.com
Encoded date : UTC 2010-02-22 21:41:31
Writing application : mkvmerge v5.9.0 (‘On The Loose’) built on Dec 9 2012 15:37:01
Writing library : libebml v1.3.0 + libmatroska v1.4.0

Video
ID : 1
Format : AVC
Format/Info : Advanced Video Codec
Format profile : [email protected]
Format settings : CABAC / 4 Ref Frames
Format settings, CABAC : Yes
Format settings, ReFrames : 4 frames
Codec ID : V_MPEG4/ISO/AVC
Duration : 1 h 51 min
Bit rate : 3 708 kb/s
Width : 1 920 pixels
Height : 804 pixels
Display aspect ratio : 2.40:1
Frame rate mode : Constant
Frame rate : 23.976 (24000/1001) FPS
Color space : YUV
Chroma subsampling : 4:2:0
Bit depth : 8 bits
Scan type : Progressive
Bits/(Pixel*Frame) : 0.100
Stream size : 2.99 GiB (75%)
Title : [MINI Super-HQ]_Belleville.Cop.2019.1080p.BrRip.DTS.x264.One2loadup.com
Writing library : x264 core 130 r2273 b3065e6
Encoding settings : cabac=1 / ref=3 / deblock=1:0:0 / analyse=0x3:0x113 / me=umh / subme=11 / psy=1 / psy_rd=1.00:0.00 / mixed_ref=1 / me_range=48 / chroma_me=1 / trellis=2 / 8x8dct=1 / cqm=0 / deadzone=21,11 / fast_pskip=1 / chroma_qp_offset=-2 / threads=24 / lookahead_threads=2 / sliced_threads=0 / nr=0 / decimate=1 / interlaced=0 / bluray_compat=0 / constrained_intra=0 / bframes=3 / b_pyramid=2 / b_adapt=1 / b_bias=0 / direct=1 / weightb=1 / open_gop=0 / weightp=2 / keyint=240 / keyint_min=24 / scenecut=40 / intra_refresh=0 / rc_lookahead=40 / rc=2pass / mbtree=1 / bitrate=3708 / ratetol=1.0 / qcomp=0.60 / qpmin=0 / qpmax=69 / qpstep=4 / cplxblur=20.0 / qblur=0.5 / ip_ratio=1.40 / aq=1:1.00
Language : French
Default : Yes
Forced : No
Color range : Limited
Color primaries : BT.709
Transfer characteristics : BT.709
Matrix coefficients : BT.709

Audio #1
ID : 2
Format : AC-3
Format/Info : Audio Coding 3
Commercial name : Dolby Digital
Codec ID : A_AC3
Duration : 1 h 51 min
Bit rate mode : Constant
Bit rate : 448 kb/s
Channel(s) : 6 channels
Channel layout : L R C LFE Ls Rs
Sampling rate : 48.0 kHz
Frame rate : 31.250 FPS (1536 SPF)
Bit depth : 16 bits
Compression mode : Lossy
Stream size : 357 MiB (9%)
Title : Thai DVD Master
Language : Thai
Service kind : Complete Main
Default : Yes
Forced : Yes

Audio #2
ID : 3
Format : DTS
Format/Info : Digital Theater Systems
Codec ID : A_DTS
Duration : 1 h 51 min
Bit rate mode : Constant
Bit rate : 755 kb/s
Channel(s) : 6 channels
Channel layout : C L R Ls Rs LFE
Sampling rate : 48.0 kHz
Frame rate : 93.750 FPS (512 SPF)
Bit depth : 24 bits
Compression mode : Lossy
Stream size : 601 MiB (15%)
Title : French DTS
Language : French
Default : No
Forced : No

Text #1
ID : 4
Format : VobSub
Codec ID : S_VOBSUB
Codec ID/Info : Picture based subtitle format used on DVDs
Title : Thai 480p From DVD Master
Language : Thai
Default : No
Forced : No

Text #2
ID : 5
Format : VobSub
Codec ID : S_VOBSUB
Codec ID/Info : Picture based subtitle format used on DVDs
Title : Thai 720p
Language : Thai
Default : No
Forced : No

Text #3
ID : 6
Format : VobSub
Codec ID : S_VOBSUB
Codec ID/Info : Picture based subtitle format used on DVDs
Title : Thai 1080p
Language : Thai
Default : Yes
Forced : Yes

Text #4
ID : 7
Format : VobSub
Codec ID : S_VOBSUB
Codec ID/Info : Picture based subtitle format used on DVDs
Title : Thai 1080p Yellow
Language : Thai
Default : No
Forced : No

Text #5
ID : 8
Format : VobSub
Codec ID : S_VOBSUB
Codec ID/Info : Picture based subtitle format used on DVDs
Title : Thai 1080p Out
Language : Thai
Default : No
Forced : No

Text #6
ID : 9
Format : VobSub
Codec ID : S_VOBSUB
Codec ID/Info : Picture based subtitle format used on DVDs
Title : Thai 1080p BIG
Language : Thai
Default : No
Forced : No

Text #7
ID : 10
Format : VobSub
Codec ID : S_VOBSUB
Codec ID/Info : Picture based subtitle format used on DVDs
Title : Thai 1080p Out [BIG]
Language : Thai
Default : No
Forced : No

Text #8
ID : 11
Format : PGS
Codec ID : S_HDMV/PGS
Codec ID/Info : Picture based subtitle format used on BDs/HD-DVDs
Title : Thai PGS
Language : Thai
Default : No
Forced : No

Text #9
ID : 12
Format : PGS
Codec ID : S_HDMV/PGS
Codec ID/Info : Picture based subtitle format used on BDs/HD-DVDs
Title : Thai PGS Yellow
Language : Thai
Default : No
Forced : No

Text #10
ID : 13
Format : PGS
Codec ID : S_HDMV/PGS
Codec ID/Info : Picture based subtitle format used on BDs/HD-DVDs
Title : Thai PGS Out
Language : Thai
Default : No
Forced : No

Text #11
ID : 14
Format : VobSub
Codec ID : S_VOBSUB
Codec ID/Info : Picture based subtitle format used on DVDs
Title : English
Language : English
Default : No
Forced : No

Menu
00:00:00.000 : en:Chapter 1
00:08:32.220 : en:Chapter 2
00:18:40.995 : en:Chapter 3
00:29:11.291 : en:Chapter 4
00:40:28.176 : en:Chapter 5
00:49:32.011 : en:Chapter 6
00:59:33.528 : en:Chapter 7
01:09:57.110 : en:Chapter 8
01:19:50.619 : en:Chapter 9
01:30:13.742 : en:Chapter 10
01:38:14.389 : en:Chapter 11
01:48:23.330 : en:Chapter 12

DOWNLOAD


PART01 |||| PART02 |||| PART03 |||| PART04

PART01 |||| PART02 |||| PART03 |||| PART04

PART01 |||| PART02 |||| PART03 |||| PART04

PART01 |||| PART02 |||| PART03 |||| PART04


1 Comment
  1. Doom Tough
    Doom Tough says

    thank………..

Leave A Reply

Your email address will not be published.

%d bloggers like this: