[MINI Super-HQ] Batman: The Long Halloween, Part One (2021) แบทแมน: เดอะลอง ฮาโลวีน พาร์ท 1 [1080p] [พากย์ไทย 2.0 + เสียงอังกฤษ DTS] [บรรยายไทย + อังกฤษ] [เสียงไทยมาสเตอร์ + ซับไทย] [USERLOAD]

0

โหลดหนัง Batman: The Long Halloween, Part One (2021) แบทแมน: เดอะลอง ฮาโลวีน พาร์ท 1

Batman: The Long Halloween, Part One 85min | Animation, Action, Crime, Horror, Mystery, Sci-Fi | June 22, 2021 (United States) Summary: Batman investigates a murder spree that takes place on holidays.
Countries: United StatesLanguages: English

เรื่องย่อ Batman: The Long Halloween, Part One (2021) แบทแมน: เดอะลอง ฮาโลวีน พาร์ท 1

แรงบันดาลใจจากเรื่องราวใน DC กลางทศวรรษ 1990 จาก เจฟ เลบ และ ทิม เซล แบทแมน: The Long Halloween ส่วนที่หนึ่งเริ่มต้นขึ้นเมื่อการฆาตกรรมที่โหดร้ายในวันฮัลโลวีนแจ้ง แบทแมน ศาลเตี้ยหนุ่มของก๊อตแธม ให้ทำสัญญากับทนายความสองคนที่ไม่ทุจริตของเมือง (กัปตันตำรวจ เจมส์ กอร์แดน และอัยการเขตฮาร์วีย์ เดนท์) เพื่อโค่นล้มเดอะโรมัน หัวหน้ากลุ่มอาชญากรฟอลคอนที่โด่งดังและทรงพลังแต่เมื่อมีผู้เสียชีวิตเพิ่มขึ้นในวันขอบคุณพระเจ้าและคริสต์มาส เห็นได้ชัดว่าแทนที่จะใช้ความรุนแรงของกลุ่มแก๊งค์พวกเขายังต้องรับมือกับฆาตกรต่อเนื่องด้วยตัวตนของผู้ที่ด้วยเบาะแสที่ขัดแย้งกันแต่ละคำนั้นยากต่อการแยกแยะ
มีเพียงไม่กี่กรณีที่เคยทดสอบสติปัญญาของนักสืบที่ยิ่งใหญ่ที่สุดของโลกเช่นความลึกลับเบื้องหลังนักฆ่าในวันหยุด!!!

Complete name : [MINI Super-HQ]_Batman.The.Long.Halloween.Part.One.2021.1080p.BluRay.DTS.x264.THM.One2loadup.com.mkv
Format : Matroska
Format version : Version 4
File size : 3.72 GiB
Duration : 1 h 25 min
Overall bit rate : 6 224 kb/s
Movie name : [MINI Super-HQ]_Batman.The.Long.Halloween.Part.One.2021.1080p.BluRay.DTS.x264.THM.One2loadup.com
Encoded date : UTC 2021-07-23 23:35:23
Writing application : mkvmerge v9.8.0 (‘Kuglblids’) 64bit
Writing library : libebml v1.3.4 + libmatroska v1.4.5

Video
ID : 1
Format : AVC
Format/Info : Advanced Video Codec
Format profile : [email protected]
Format settings : CABAC / 4 Ref Frames
Format settings, CABAC : Yes
Format settings, Reference : 4 frames
Codec ID : V_MPEG4/ISO/AVC
Duration : 1 h 25 min
Bit rate : 4 949 kb/s
Width : 1 920 pixels
Height : 1 080 pixels
Display aspect ratio : 16:9
Frame rate mode : Constant
Frame rate : 23.976 (24000/1001) FPS
Color space : YUV
Chroma subsampling : 4:2:0
Bit depth : 8 bits
Scan type : Progressive
Bits/(Pixel*Frame) : 0.100
Stream size : 2.96 GiB (80%)
Title : [MINI Super-HQ]_Batman.The.Long.Halloween.Part.One.2021.1080p.BluRay.DTS.x264.THM.One2loadup.com
Writing library : x264 core 146 r2538 121396c
Encoding settings : cabac=1 / ref=5 / deblock=1:-3:-3 / analyse=0x3:0x133 / me=tesa / subme=11 / psy=1 / psy_rd=0.40:0.00 / mixed_ref=1 / me_range=48 / chroma_me=1 / trellis=2 / 8x8dct=1 / cqm=0 / deadzone=21,11 / fast_pskip=1 / chroma_qp_offset=-2 / threads=54 / lookahead_threads=4 / sliced_threads=0 / nr=0 / decimate=1 / interlaced=0 / bluray_compat=1 / constrained_intra=0 / bframes=3 / b_pyramid=1 / b_adapt=2 / b_bias=0 / direct=3 / weightb=1 / open_gop=0 / weightp=1 / keyint=250 / keyint_min=1 / scenecut=40 / intra_refresh=0 / rc_lookahead=60 / rc=2pass / mbtree=1 / bitrate=4949 / ratetol=1.0 / qcomp=0.60 / qpmin=0 / qpmax=69 / qpstep=4 / cplxblur=20.0 / qblur=0.5 / ip_ratio=1.40 / aq=1:1.30
Language : English
Default : Yes
Forced : No

Audio #1
ID : 2
Format : AC-3
Format/Info : Audio Coding 3
Commercial name : Dolby Digital
Codec ID : A_AC3
Duration : 1 h 25 min
Bit rate mode : Constant
Bit rate : 384 kb/s
Channel(s) : 2 channels
Channel layout : L R
Sampling rate : 48.0 kHz
Frame rate : 31.250 FPS (1536 SPF)
Compression mode : Lossy
Stream size : 235 MiB (6%)
Title : Thai Master
Language : Thai
Service kind : Complete Main
Default : Yes
Forced : Yes

Audio #2
ID : 3
Format : DTS
Format/Info : Digital Theater Systems
Codec ID : A_DTS
Duration : 1 h 25 min
Bit rate mode : Constant
Bit rate : 755 kb/s
Channel(s) : 6 channels
Channel layout : C L R Ls Rs LFE
Sampling rate : 48.0 kHz
Frame rate : 93.750 FPS (512 SPF)
Bit depth : 24 bits
Compression mode : Lossy
Stream size : 461 MiB (12%)
Title : English DTS-5.1
Language : English
Default : No
Forced : No

Text #1
ID : 4
Format : VobSub
Codec ID : S_VOBSUB
Codec ID/Info : Picture based subtitle format used on DVDs
Duration : 1 h 25 min
Bit rate : 7 963 b/s
Count of elements : 755
Stream size : 4.87 MiB (0%)
Title : Thai 1080p
Language : Thai
Default : Yes
Forced : Yes

Text #2
ID : 5
Format : PGS
Codec ID : S_HDMV/PGS
Codec ID/Info : Picture based subtitle format used on BDs/HD-DVDs
Duration : 1 h 25 min
Bit rate : 33.2 kb/s
Count of elements : 1510
Stream size : 20.3 MiB (1%)
Title : Thai 1080p PGS
Language : Thai
Default : No
Forced : No

Text #3
ID : 6
Format : VobSub
Codec ID : S_VOBSUB
Codec ID/Info : Picture based subtitle format used on DVDs
Duration : 1 h 25 min
Bit rate : 7 865 b/s
Count of elements : 755
Stream size : 4.81 MiB (0%)
Title : Thai 1080p Out
Language : Thai
Default : No
Forced : No

Text #4
ID : 7
Format : PGS
Codec ID : S_HDMV/PGS
Codec ID/Info : Picture based subtitle format used on BDs/HD-DVDs
Duration : 1 h 25 min
Bit rate : 32.8 kb/s
Count of elements : 1510
Stream size : 20.0 MiB (1%)
Title : Thai 1080p Out PGS
Language : Thai
Default : No
Forced : No

Text #5
ID : 8
Format : VobSub
Codec ID : S_VOBSUB
Codec ID/Info : Picture based subtitle format used on DVDs
Duration : 1 h 25 min
Bit rate : 10.9 kb/s
Count of elements : 755
Stream size : 6.67 MiB (0%)
Title : Thai 1080p Yellow
Language : Thai
Default : No
Forced : No

Text #6
ID : 9
Format : PGS
Codec ID : S_HDMV/PGS
Codec ID/Info : Picture based subtitle format used on BDs/HD-DVDs
Duration : 1 h 24 min
Bit rate : 32.1 kb/s
Count of elements : 2272
Stream size : 19.5 MiB (1%)
Title : English PGS
Language : English
Default : No
Forced : No

Menu
00:00:00.000 : en:00:00:00.000
00:08:40.145 : en:00:08:40.145
00:17:11.864 : en:00:17:11.864
00:26:31.507 : en:00:26:31.507
00:34:16.972 : en:00:34:16.972
00:44:09.730 : en:00:44:09.730
00:54:10.289 : en:00:54:10.289
01:01:14.754 : en:01:01:14.754
01:08:22.807 : en:01:08:22.807
01:14:29.507 : en:01:14:29.507
01:21:31.136 : en:01:21:31.136

DOWNLOAD


PART01 |||| PART02 |||| PART03 |||| PART04

PART01 |||| PART02 |||| PART03 |||| PART04

PART01 |||| PART02 |||| PART03 |||| PART04

PART01 |||| PART02 |||| PART03 |||| PART04

PART01 |||| PART02 |||| PART03 |||| PART04


Leave A Reply

อีเมล์ของคุณจะไม่แสดงให้เห็น Your email address will not be published.

%d bloggers like this: