[MINI Super-HQ] Bad Guys: The Movie (2019) ทีมคนซ่า ล่าคนเลว [1080p] [พากย์ไทย 2.0 + เสียงเกาหลี DTS] [ไม่มีบรรยาย] [เสียงไทยมาสเตอร์] [PANDAFILE]

0

โหลดหนัง Bad Guys: The Movie (2019) ทีมคนซ่า ล่าคนเลว

The Bad Guys: The Movie | September 20, 2019 (United States) Summary: A bus transporting the inmates is flipped resulting in the felons escaping. In order to round up and once again incarcerate the criminals the cops form a special task force that needs to wor... Read all
Countries: South KoreaLanguages: Korean, Japanese

เรื่องย่อ Bad Guys: The Movie (2019) ทีมคนซ่า ล่าคนเลว

เป็นเวอร์ชั่นภาพยนตร์ ของซีรีส์ดังจากช่อง OCN ในชื่อเดียวกันโดยได้ นักแสดงชุดเดิมอย่าง มาดงซอก คิมซังจุง และ คังเยวอน จากซีรีส์ซีซั่นแรกมารับบทนำและเพิ่มเติมด้วยนักแสดงใหม่ จางกียง และ คิมอาจุง โดยในเวอร์ชั่นภาพยนตร์เล่าเรื่องราวเกี่ยวกับหน่วยง านอาชญากรรมสืบสวนพิเศษที่พยายามไขคดีที่ไม่เคยเกิดขึ้นมาก่อนและตามจับอาชญากรที่หลบหนีระหว่างการส่งตัวเข้าคุก!!!

Complete name : [MINI Super-HQ]_Bad.Guys.The.Movie.2019.1080p.BrRip.DTS.x264.THM.One2loadup.com.mkv
Format : Matroska
Format version : Version 4
File size : 3.77 GiB
Duration : 1 h 50 min
Overall bit rate : 4 879 kb/s
Movie name : [MINI Super-HQ]_Bad.Guys.The.Movie.2019.1080p.BrRip.DTS.x264.THM.One2loadup.com
Encoded date : UTC 2020-04-09 12:10:35
Writing application : mkvmerge v9.8.0 (‘Kuglblids’) 64bit
Writing library : libebml v1.3.4 + libmatroska v1.4.5

Video
ID : 1
Format : AVC
Format/Info : Advanced Video Codec
Format profile : [email protected]
Format settings : CABAC / 4 Ref Frames
Format settings, CABAC : Yes
Format settings, ReFrames : 4 frames
Codec ID : V_MPEG4/ISO/AVC
Duration : 1 h 50 min
Bit rate : 3 738 kb/s
Width : 1 920 pixels
Height : 800 pixels
Display aspect ratio : 2.40:1
Frame rate mode : Constant
Frame rate : 25.000 FPS
Color space : YUV
Chroma subsampling : 4:2:0
Bit depth : 8 bits
Scan type : Progressive
Bits/(Pixel*Frame) : 0.097
Stream size : 2.89 GiB (77%)
Title : [MINI Super-HQ]_[email protected]ZEZA
Writing library : x264 core 157 r2935 545de2f
Encoding settings : cabac=1 / ref=3 / deblock=1:0:0 / analyse=0x3:0x133 / me=umh / subme=11 / psy=1 / psy_rd=1.00:0.00 / mixed_ref=1 / me_range=48 / chroma_me=1 / trellis=2 / 8x8dct=1 / cqm=0 / deadzone=21,11 / fast_pskip=1 / chroma_qp_offset=-2 / threads=12 / lookahead_threads=1 / sliced_threads=0 / nr=0 / decimate=1 / interlaced=0 / bluray_compat=0 / constrained_intra=0 / bframes=3 / b_pyramid=2 / b_adapt=1 / b_bias=0 / direct=3 / weightb=1 / open_gop=0 / weightp=2 / keyint=250 / keyint_min=25 / scenecut=40 / intra_refresh=0 / rc_lookahead=60 / rc=2pass / mbtree=1 / bitrate=3738 / ratetol=1.0 / qcomp=0.60 / qpmin=0 / qpmax=69 / qpstep=4 / cplxblur=20.0 / qblur=0.5 / vbv_maxrate=25000 / vbv_bufsize=31250 / nal_hrd=none / filler=0 / ip_ratio=1.40 / aq=1:1.00
Language : Korean
Default : Yes
Forced : No
Color range : Limited
Color primaries : BT.709
Transfer characteristics : BT.709
Matrix coefficients : BT.709

Audio #1
ID : 2
Format : AC-3
Format/Info : Audio Coding 3
Commercial name : Dolby Digital
Codec ID : A_AC3
Duration : 1 h 50 min
Bit rate mode : Constant
Bit rate : 384 kb/s
Channel(s) : 2 channels
Channel layout : L R
Sampling rate : 48.0 kHz
Frame rate : 31.250 FPS (1536 SPF)
Bit depth : 16 bits
Compression mode : Lossy
Stream size : 304 MiB (8%)
Title : Thai Master
Language : Thai
Service kind : Complete Main
Default : Yes
Forced : No

Audio #2
ID : 3
Format : DTS
Format/Info : Digital Theater Systems
Codec ID : A_DTS
Duration : 1 h 50 min
Bit rate mode : Constant
Bit rate : 755 kb/s
Channel(s) : 6 channels
Channel layout : C L R Ls Rs LFE
Sampling rate : 48.0 kHz
Frame rate : 93.750 FPS (512 SPF)
Bit depth : 24 bits
Compression mode : Lossy
Stream size : 597 MiB (15%)
Title : Korean DTS
Language : Korean
Default : No
Forced : No

Menu
00:00:00.000 : en:Chapter 1
00:08:38.977 : en:Chapter 2
00:20:32.897 : en:Chapter 3
00:37:05.897 : en:Chapter 4
00:53:59.497 : en:Chapter 5
01:04:57.417 : en:Chapter 6
01:25:25.297 : en:Chapter 7
01:45:47.657 : en:Chapter 8

DOWNLOAD


PART01 |||| PART02 |||| PART03 |||| PART04

PART01 |||| PART02 |||| PART03 |||| PART04 

PART01 |||| PART02 |||| PART03 |||| PART04

PART01 |||| PART02 |||| PART03 |||| PART04

PART01 |||| PART02 |||| PART03 |||| PART04


Leave A Reply

อีเมล์ของคุณจะไม่แสดงให้เห็น Your email address will not be published.

%d bloggers like this: