[MINI Super-HQ] Archive (2020) อาร์ไคฟ์ หน่วยเก็บถาวร [1080p] [พากย์ไทย 2.0 + เสียงอังกฤษ DTS] [บรรยายไทย + อังกฤษ] [เสียงไทยมาสเตอร์ + ซับไทย] [PANDAFILE]

0

โหลดหนัง Archive (2020) อาร์ไคฟ์ หน่วยเก็บถาวร

Archive (2020) 1h 49min | Drama, Sci-Fi, Thriller | 10 July 2020 (USA) Summary: 2038: George Almore is working on a true human-equivalent AI. His latest prototype is almost ready. This sensitive phase is also the riskiest. Especially as he has a goal that must be hidden at all costs: being reunited with his dead wife.
Countries: UK, Hungary, USALanguages: English, Japanese

เรื่องย่อ Archive (2020) อาร์ไคฟ์ หน่วยเก็บถาวร

ในปี 2049 จอร์จ อัลมอร์ นักพัฒนาหุ่นยนต์ ใกล้ที่จะค้นพบความก้าวหน้าทางเทคโนโลยีครั้งยิ่งใหญ่เขากำลังสร้างแบบจำลองหุ่นยนต์ที่เทียบเท่ากับมนุษย์อย่างแท้จริง ณ โรงงานลับๆ อันแสนห่างไกล เจทรี หุ่นต้นแบบรุ่นล่าสุดของเขาจวนจะเสร็จสมบูรณ์แล้วการพัฒนาเจทรีนั้นพัฒนามาจากหุ่นต้นแบบสองรุ่นก่อนหน้า เจวันและเจทู หุ่นต้นแบบแต่ละตัวคือ หุ่นยนต์เวอร์ชันที่พัฒนาล้ำหน้าขึ้นเรื่อยๆ ของจูลส์ ภรรยาของเขาผู้ซึ่งประสบอุบัติเหตุรถยนต์ร้ายแรงจนเสียชีวิต แต่ด้วยความรักที่มีต่อจูลส์ จอร์จแอบเบนโฟกัสในการสร้างหุ่นยนต์ของเขาอย่างเงียบ ๆ การพัฒนาหุ่นยนต์โดยมีเป้าหมายในการสร้างภาพจำลองเสมือนจริงของจูลส์ จากการทดลองพัฒนาหุ่นต้นแบบเจหลายๆ รุ่น จอร์จได้สัมผัสมุมต่างๆ ของภรรยาเขาที่เขาไม่เคยได้สัมผัสเลยตอนที่เธอยังมีชีวิตอยู่ และถึงแม้หุ่นต้นแบบแต่ละตัวจะค่อยๆ พัฒนาความรักที่มีต่อจอร์จการที่เขาพัฒนาหุ่นยนต์ตามลำดับก็ทำให้ความสัมพันธ์ระหว่างจอร์จกับหุ่นแต่ละตัวนั้นมีลักษณะที่แตกต่างกันออกไปขณะเดียวกัน จูลส์ก็ยังมีตัวตนอยู่ในชีวิตของจอร์จผ่านทางเทคโนโล ยีการยืดชีวิตรูปแบบใหม่: อาร์ไคฟ์ อย่างไรก็ตาม เมื่อเครื่องอาร์ไคฟ์มาถึงจุดวิกฤตที่ใกล้จะพังลงจอร์จก็จำเป็นจะต้องพัฒนาหุ่นเจทรี ให้เสร็จสมบูรณ์มากกว่าครั้งไหนๆ ก่อนที่เขาจะเสียจูลส์ไปตลอดกาล ขณะที่การพัฒนาหุ่นยนต์ของเขาเข้าใกล้ขั้นสุดท้ายที่ มีความเสี่ยงที่สุดแรงกดดันจากภายนอกก็ขู่เข็ญว่าจะเปิดโปงและปิดโรงงานเขา ในขณะเดียวกันการเปิดตัวของเจทรีสุดล้ำก็ได้ทำลายสมดุล “ครอบครัว” ที่แสนบอบบางภายในโรงงานแห่งนี้!!!

Complete name : [MINI Super-HQ]_Archive.2020.1080p.BrRip.DTS.x264.THM.One2loadup.com.mkv
Format : Matroska
Format version : Version 4
File size : 3.91 GiB
Duration : 1 h 49 min
Overall bit rate : 5 134 kb/s
Movie name : [MINI Super-HQ]_Archive.2020.1080p.BrRip.DTS.x264.THM.One2loadup.com
Encoded date : UTC 2010-02-22 21:41:31
Writing application : mkvmerge v5.9.0 (‘On The Loose’) built on Dec 9 2012 15:37:01
Writing library : libebml v1.3.0 + libmatroska v1.4.0

Video
ID : 1
Format : AVC
Format/Info : Advanced Video Codec
Format profile : [email protected]
Format settings : CABAC / 4 Ref Frames
Format settings, CABAC : Yes
Format settings, ReFrames : 4 frames
Codec ID : V_MPEG4/ISO/AVC
Duration : 1 h 49 min
Bit rate : 3 839 kb/s
Width : 1 920 pixels
Height : 804 pixels
Display aspect ratio : 2.40:1
Frame rate mode : Constant
Frame rate : 24.000 FPS
Color space : YUV
Chroma subsampling : 4:2:0
Bit depth : 8 bits
Scan type : Progressive
Bits/(Pixel*Frame) : 0.104
Stream size : 2.96 GiB (76%)
Title : [MINI Super-HQ]_Archive.2020.1080p.BrRip.DTS.x264.THM.One2loadup.com
Writing library : x264 core 157 r2935 545de2f
Encoding settings : cabac=1 / ref=3 / deblock=1:0:0 / analyse=0x3:0x133 / me=umh / subme=11 / psy=1 / psy_rd=1.00:0.00 / mixed_ref=1 / me_range=48 / chroma_me=1 / trellis=2 / 8x8dct=1 / cqm=0 / deadzone=21,11 / fast_pskip=1 / chroma_qp_offset=-2 / threads=12 / lookahead_threads=1 / sliced_threads=0 / nr=0 / decimate=1 / interlaced=0 / bluray_compat=0 / constrained_intra=0 / bframes=3 / b_pyramid=2 / b_adapt=1 / b_bias=0 / direct=3 / weightb=1 / open_gop=0 / weightp=2 / keyint=240 / keyint_min=24 / scenecut=40 / intra_refresh=0 / rc_lookahead=60 / rc=2pass / mbtree=1 / bitrate=3839 / ratetol=1.0 / qcomp=0.60 / qpmin=0 / qpmax=69 / qpstep=4 / cplxblur=20.0 / qblur=0.5 / vbv_maxrate=25000 / vbv_bufsize=31250 / nal_hrd=none / filler=0 / ip_ratio=1.40 / aq=1:1.00
Language : English
Default : Yes
Forced : No
Color range : Limited
Color primaries : BT.709
Transfer characteristics : BT.709
Matrix coefficients : BT.709

Audio #1
ID : 2
Format : AC-3
Format/Info : Audio Coding 3
Commercial name : Dolby Digital
Codec ID : A_AC3
Duration : 1 h 49 min
Bit rate mode : Constant
Bit rate : 384 kb/s
Channel(s) : 2 channels
Channel layout : L R
Sampling rate : 48.0 kHz
Frame rate : 31.250 FPS (1536 SPF)
Bit depth : 16 bits
Compression mode : Lossy
Delay relative to video : -5 ms
Stream size : 299 MiB (7%)
Title : Thai Master
Language : Thai
Service kind : Complete Main
Default : Yes
Forced : Yes

Audio #2
ID : 3
Format : DTS
Format/Info : Digital Theater Systems
Codec ID : A_DTS
Duration : 1 h 49 min
Bit rate mode : Constant
Bit rate : 755 kb/s
Channel(s) : 6 channels
Channel layout : C L R Ls Rs LFE
Sampling rate : 48.0 kHz
Frame rate : 93.750 FPS (512 SPF)
Bit depth : 24 bits
Compression mode : Lossy
Delay relative to video : -5 ms
Stream size : 588 MiB (15%)
Title : English DTS
Language : English
Default : No
Forced : No

Text #1
ID : 4
Format : VobSub
Codec ID : S_VOBSUB
Codec ID/Info : Picture based subtitle format used on DVDs
Title : Thai 720p
Language : Thai
Default : No
Forced : No

Text #2
ID : 5
Format : VobSub
Codec ID : S_VOBSUB
Codec ID/Info : Picture based subtitle format used on DVDs
Title : Thai 1080p
Language : Thai
Default : Yes
Forced : Yes

Text #3
ID : 6
Format : VobSub
Codec ID : S_VOBSUB
Codec ID/Info : Picture based subtitle format used on DVDs
Title : Thai 1080p Yellow
Language : Thai
Default : No
Forced : No

Text #4
ID : 7
Format : VobSub
Codec ID : S_VOBSUB
Codec ID/Info : Picture based subtitle format used on DVDs
Title : Thai 1080p Out
Language : Thai
Default : No
Forced : No

Text #5
ID : 8
Format : VobSub
Codec ID : S_VOBSUB
Codec ID/Info : Picture based subtitle format used on DVDs
Title : Thai 1080p BIG
Language : Thai
Default : No
Forced : No

Text #6
ID : 9
Format : VobSub
Codec ID : S_VOBSUB
Codec ID/Info : Picture based subtitle format used on DVDs
Title : Thai 1080p Out [BIG]
Language : Thai
Default : No
Forced : No

Text #7
ID : 10
Format : PGS
Codec ID : S_HDMV/PGS
Codec ID/Info : Picture based subtitle format used on BDs/HD-DVDs
Title : Thai PGS
Language : Thai
Default : No
Forced : No

Text #8
ID : 11
Format : PGS
Codec ID : S_HDMV/PGS
Codec ID/Info : Picture based subtitle format used on BDs/HD-DVDs
Title : Thai PGS Yellow
Language : Thai
Default : No
Forced : No

Text #9
ID : 12
Format : PGS
Codec ID : S_HDMV/PGS
Codec ID/Info : Picture based subtitle format used on BDs/HD-DVDs
Title : Thai PGS Out
Language : Thai
Default : No
Forced : No

Text #10
ID : 13
Format : PGS
Codec ID : S_HDMV/PGS
Codec ID/Info : Picture based subtitle format used on BDs/HD-DVDs
Title : English
Language : English
Default : No
Forced : No

Menu
00:00:00.000 : :Chapter 1
00:03:24.958 : :Chapter 2
00:12:26.083 : :Chapter 3
00:19:48.292 : :Chapter 4
00:29:07.833 : :Chapter 5
00:35:15.208 : :Chapter 6
00:41:08.625 : :Chapter 7
00:50:10.292 : :Chapter 8
00:58:53.417 : :Chapter 9
01:08:06.000 : :Chapter 10
01:14:51.833 : :Chapter 11
01:19:28.917 : :Chapter 12
01:25:47.375 : :Chapter 13
01:34:37.292 : :Chapter 14
01:39:38.625 : :Chapter 15
01:43:29.458 : :Chapter 16

DOWNLOAD


PART01 |||| PART02 |||| PART03 |||| PART04

PART01 |||| PART02 |||| PART03 |||| PART04

PART01 |||| PART02 |||| PART03 |||| PART04

PART01 |||| PART02 |||| PART03 |||| PART04

PART01 |||| PART02 |||| PART03 |||| PART04



แจ้งหนังเสีย หรือโหลดไม่ได้ ทั้งลิ้งฟรีและ vip สามารถกดที่รูปด้านบนนี้ได้เลย

: Disable Comments
%d bloggers like this: