[MINI Super-HQ] Apocalypto (2006) ปิดตำนานอารยชน [1080p] [พากย์ไทย 5.1 + มายัน DTS] [บรรยายไทย + อังกฤษ] [เสียงไทย + ซับไทย] [PANDAFILE]

0

โหลดหนัง Apocalypto (2006) อะพอคคาลิพโต้ ปิดตำนานอารยชน

Apocalypto (2006) 2h 19min | Action, Adventure, Drama | 14 December 2006 (Germany) Summary: As the Mayan kingdom faces its decline, a young man is taken on a perilous journey to a world ruled by fear and oppression.
Countries: USA, Mexico, UKLanguages: Maya

เรื่องย่อ Apocalypto (2006) ปิดตำนานอารยชน

เรื่องราวที่เกิดในวัฒนธรรมของชาวมายัน เมื่อการมีชีวิตอยู่แบบสงบสุขเรียบง่ายของ จากัวร์ (รูดี้ ยังบลัด) ได้ถูกทำลายอย่างเหี้ยมโหดโดยการใช้กำลังบุกรุกอย่างรุนแรง เขาจึงต้องพาตัวเองเข้าสู่การเดินทางที่เต็มไปด้วยภยันตรายสู่โลกซึ่งเต็มไปด้วยความกลัวและการกดขี่ สถานที่ซึ่งมีจุดจบแบบทรมานรอคอยเขาอยู่ การดำเนินไปของโชคชะตาที่พลิกผัน โดยมีพลังความรักจากครอบครัวและคนรักที่คอยกระตุ้นเขา สุดท้ายแล้วเขาจะฝ่าฟันสิ่งต่างๆเเพื่อกลับสู่บ้านและรักษาหนทางแห่งชีวิตแบบเดิมของเขาได้หรือไม่!!

Complete name : [MINI Super-HQ]_Apocalypto.2006.1080p.BrRip.DTS.x264.One2loadup.com.mkv
Format : Matroska
Format version : Version 4
File size : 4.62 GiB
Duration : 2 h 18 min
Overall bit rate : 4 783 kb/s
Movie name : [MINI Super-HQ]_Apocalypto.2006.1080p.BrRip.DTS.x264.One2loadup.com
Encoded date : UTC 2018-06-29 11:07:05
Writing application : mkvmerge v18.0.0 (‘Apricity’) 32-bit
Writing library : libebml v1.3.5 + libmatroska v1.4.8

Video
ID : 1
Format : AVC
Format/Info : Advanced Video Codec
Format profile : [email protected]
Format settings : CABAC / 4 Ref Frames
Format settings, CABAC : Yes
Format settings, ReFrames : 4 frames
Codec ID : V_MPEG4/ISO/AVC
Duration : 2 h 18 min
Bit rate : 3 450 kb/s
Width : 1 920 pixels
Height : 1 038 pixels
Display aspect ratio : 1.85:1
Frame rate mode : Constant
Frame rate : 23.976 (24000/1001) FPS
Color space : YUV
Chroma subsampling : 4:2:0
Bit depth : 8 bits
Scan type : Progressive
Bits/(Pixel*Frame) : 0.072
Stream size : 3.33 GiB (72%)
Title : [MINI Super-HQ]_Apocalypto.2006.1080p.BrRip.DTS.x264.One2loadup.com
Writing library : x264 core 142 r2431+42 c69a006 tMod [[email protected] X86_64]
Encoding settings : cabac=1 / ref=4 / deblock=1:-3:-3 / analyse=0x3:0x133 / me=umh / subme=11 / psy=1 / fade_compensate=0.00 / psy_rd=1.00:0.15 / mixed_ref=1 / me_range=64 / chroma_me=1 / trellis=2 / 8x8dct=1 / cqm=0 / deadzone=21,11 / fast_pskip=0 / chroma_qp_offset=-3 / threads=12 / lookahead_threads=1 / sliced_threads=0 / nr=0 / decimate=1 / interlaced=0 / bluray_compat=0 / constrained_intra=0 / fgo=0 / bframes=4 / b_pyramid=2 / b_adapt=2 / b_bias=0 / direct=3 / weightb=1 / open_gop=0 / weightp=2 / keyint=240 / keyint_min=23 / scenecut=40 / intra_refresh=0 / rc_lookahead=120 / rc=2pass / mbtree=1 / bitrate=3450 / ratetol=1.0 / qcomp=0.60 / qpmin=0:0:0 / qpmax=37:37:37 / qpstep=4 / cplxblur=20.0 / qblur=0.5 / vbv_maxrate=30000 / vbv_bufsize=38000 / nal_hrd=none / filler=0 / ip_ratio=1.10 / aq=3:0.90 / aq-sensitivity=10.00 / aq-factor=1.00:1.00:1.00 / aq2=0 / aq3=0
Language : myn
Default : Yes
Forced : No

Audio #1
ID : 2
Format : DTS
Format/Info : Digital Theater Systems
Codec ID : A_DTS
Duration : 2 h 18 min
Bit rate mode : Constant
Bit rate : 755 kb/s
Channel(s) : 6 channels
Channel layout : C L R Ls Rs LFE
Sampling rate : 48.0 kHz
Frame rate : 93.750 FPS (512 SPF)
Bit depth : 24 bits
Compression mode : Lossy
Stream size : 747 MiB (16%)
Title : DTS 755 Kbps
Language : myn
Default : No
Forced : No

Audio #2
ID : 3
Format : AC-3
Format/Info : Audio Coding 3
Commercial name : Dolby Digital
Codec ID : A_AC3
Duration : 2 h 18 min
Bit rate mode : Constant
Bit rate : 384 kb/s
Channel(s) : 6 channels
Channel layout : L R C LFE Ls Rs
Sampling rate : 48.0 kHz
Frame rate : 31.250 FPS (1536 SPF)
Bit depth : 16 bits
Compression mode : Lossy
Stream size : 380 MiB (8%)
Title : Thai AC-3 5.1 at 384 Kbps
Language : Thai
Service kind : Complete Main
Default : Yes
Forced : Yes

Audio #3
ID : 4
Format : AC-3
Format/Info : Audio Coding 3
Commercial name : Dolby Digital
Codec ID : A_AC3
Duration : 2 h 18 min
Bit rate mode : Constant
Bit rate : 192 kb/s
Channel(s) : 2 channels
Channel layout : L R
Sampling rate : 48.0 kHz
Frame rate : 31.250 FPS (1536 SPF)
Bit depth : 16 bits
Compression mode : Lossy
Stream size : 190 MiB (4%)
Title : Thai AC-3 2.0 at 192 Kbps
Language : Thai
Service kind : Complete Main
Default : No
Forced : No

Text #1
ID : 5
Format : VobSub
Muxing mode : zlib
Codec ID : S_VOBSUB
Codec ID/Info : Picture based subtitle format used on DVDs
Duration : 2 h 17 min
Bit rate : 1 535 b/s
Count of elements : 404
Stream size : 1.51 MiB (0%)
Title : 1080p
Language : Thai
Default : No
Forced : No

Text #2
ID : 6
Format : PGS
Muxing mode : zlib
Codec ID : S_HDMV/PGS
Codec ID/Info : Picture based subtitle format used on BDs/HD-DVDs
Duration : 2 h 17 min
Bit rate : 6 591 b/s
Count of elements : 808
Stream size : 6.48 MiB (0%)
Title : PGS
Language : Thai
Default : Yes
Forced : No

Text #3
ID : 7
Format : UTF-8
Codec ID : S_TEXT/UTF8
Codec ID/Info : UTF-8 Plain Text
Duration : 2 h 17 min
Bit rate : 23 b/s
Count of elements : 408
Stream size : 24.0 KiB (0%)
Title : OCR by dylanja
Language : Thai
Default : No
Forced : No

Text #4
ID : 8
Format : UTF-8
Codec ID : S_TEXT/UTF8
Codec ID/Info : UTF-8 Plain Text
Duration : 2 h 8 min
Bit rate : 10 b/s
Count of elements : 447
Stream size : 9.99 KiB (0%)
Language : English
Default : No
Forced : No

Menu
00:00:00.000 : en:00:00:00.000
00:08:19.332 : en:00:08:19.332
00:13:03.741 : en:00:13:03.741
00:19:17.281 : en:00:19:17.281
00:23:09.722 : en:00:23:09.722
00:32:34.244 : en:00:32:34.244
00:37:45.180 : en:00:37:45.180
00:48:28.656 : en:00:48:28.656
00:56:39.146 : en:00:56:39.146
01:00:53.775 : en:01:00:53.775
01:09:15.109 : en:01:09:15.109
01:18:12.938 : en:01:18:12.938
01:23:15.782 : en:01:23:15.782
01:32:12.277 : en:01:32:12.277
01:43:07.723 : en:01:43:07.723
01:50:14.983 : en:01:50:14.983
01:57:45.684 : en:01:57:45.684
02:08:06.470 : en:02:08:06.470
02:09:49.240 : en:02:09:49.240

DOWNLOAD


PART01 |||| PART02 |||| PART03 |||| PART04 |||| PART05

PART01 |||| PART02 |||| PART03 |||| PART04 |||| PART05

PART01 |||| PART02 |||| PART03 |||| PART04 |||| PART05

PART01 |||| PART02 |||| PART03 |||| PART04 |||| PART05

PART01 |||| PART02 |||| PART03 |||| PART04 |||| PART05


Leave A Reply

Your email address will not be published.

%d bloggers like this: