[MINI Super-HQ] Afterlife of the Party (2021) อาฟเตอร์ไลฟ์ ออฟ เดอะ ปาร์ตี้ [1080p] [NETFLIX] [พากย์ไทย 5.1 + เสียงอังกฤษ 5.1] [บรรยายไทย + อังกฤษ] [เสียงไทย + ซับไทย] [DOSYAUPLOAD]

0

โหลดหนัง Afterlife of the Party (2021) อาฟเตอร์ไลฟ์ ออฟ เดอะ ปาร์ตี้

Afterlife of the Party 109min | Comedy, Drama, Fantasy, Romance | September 2, 2021 (United States) Summary: A social butterfly who dies during her birthday week is given a second chance to right her wrongs on Earth.
Countries: United StatesLanguages: English

เรื่องย่อ Afterlife of the Party (2021) อาฟเตอร์ไลฟ์ ออฟ เดอะ ปาร์ตี้

แคสซี่เกิดมาเพื่อปาร์ตี้… จนกระทั่งตายในอุบัติเหตุสุดพิลึก ถึงคราวที่สาวสังคมตัวแม่ต้องกลับไปแก้ไขข้อผิดพลาดบนโลกมนุษย์ ถ้าอยากพิสูจน์ความดีในตัวเอง

Complete name : [MINI Super-HQ]_Afterlife.of.the.Party.2021.1080p.NF.WEB-DL.EAC3.x264.One2loadup.com.mkv
Format : Matroska
Format version : Version 4
File size : 4.25 GiB
Duration : 1 h 49 min
Overall bit rate : 5 542 kb/s
Movie name : [MINI Super-HQ]_Afterlife.of.the.Party.2021.1080p.NF.WEB-DL.EAC3.x264.One2loadup.com
Encoded date : UTC 2021-09-02 11:57:45
Writing application : mkvmerge v61.0.0 (‘So’) 64-bit
Writing library : libebml v1.4.2 + libmatroska v1.6.4

Video
ID : 1
Format : AVC
Format/Info : Advanced Video Codec
Format profile : [email protected]
Format settings : CABAC / 3 Ref Frames
Format settings, CABAC : Yes
Format settings, Reference : 3 frames
Codec ID : V_MPEG4/ISO/AVC
Duration : 1 h 49 min
Bit rate : 4 052 kb/s
Width : 1 920 pixels
Height : 800 pixels
Display aspect ratio : 2.40:1
Frame rate mode : Constant
Frame rate : 24.000 FPS
Color space : YUV
Chroma subsampling : 4:2:0
Bit depth : 8 bits
Scan type : Progressive
Bits/(Pixel*Frame) : 0.110
Stream size : 3.11 GiB (73%)
Title : [MINI Super-HQ]_Afterlife.of.the.Party.2021.1080p.NF.WEB-DL.EAC3.x264.One2loadup.com
Language : English
Default : Yes
Forced : No

Audio #1
ID : 2
Format : E-AC-3 JOC
Format/Info : Enhanced AC-3 with Joint Object Coding
Commercial name : Dolby Digital Plus with Dolby Atmos
Codec ID : A_EAC3
Duration : 1 h 49 min
Bit rate mode : Constant
Bit rate : 768 kb/s
Channel(s) : 6 channels
Channel layout : L R C LFE Ls Rs
Sampling rate : 48.0 kHz
Frame rate : 31.250 FPS (1536 SPF)
Compression mode : Lossy
Stream size : 604 MiB (14%)
Title : E-AC3 Atmos English
Language : English
Service kind : Complete Main
Default : Yes
Forced : No
Complexity index : 16
Number of dynamic objects : 15
Bed channel count : 1 channel
Bed channel configuration : LFE

Audio #2
ID : 3
Format : E-AC-3
Format/Info : Enhanced AC-3
Commercial name : Dolby Digital Plus
Codec ID : A_EAC3
Duration : 1 h 49 min
Bit rate mode : Constant
Bit rate : 640 kb/s
Channel(s) : 6 channels
Channel layout : L R C LFE Ls Rs
Sampling rate : 48.0 kHz
Frame rate : 31.250 FPS (1536 SPF)
Compression mode : Lossy
Stream size : 503 MiB (12%)
Title : E-AC3 Thai
Language : Thai
Service kind : Complete Main
Default : No
Forced : No

Text #1
ID : 4
Format : VobSub
Muxing mode : zlib
Codec ID : S_VOBSUB
Codec ID/Info : Picture based subtitle format used on DVDs
Duration : 1 h 48 min
Bit rate : 15.1 kb/s
Count of elements : 1563
Stream size : 11.7 MiB (0%)
Title : Sub Thai 1080p
Language : Thai
Default : No
Forced : No

Text #2
ID : 5
Format : UTF-8
Codec ID : S_TEXT/UTF8
Codec ID/Info : UTF-8 Plain Text
Duration : 1 h 48 min
Bit rate : 159 b/s
Count of elements : 1563
Stream size : 126 KiB (0%)
Title : Sub Thai SRT
Language : Thai
Default : No
Forced : No

Text #3
ID : 6
Format : PGS
Muxing mode : zlib
Codec ID : S_HDMV/PGS
Codec ID/Info : Picture based subtitle format used on BDs/HD-DVDs
Duration : 1 h 48 min
Bit rate : 42.7 kb/s
Count of elements : 3126
Stream size : 33.1 MiB (1%)
Title : Sub Thai PGS
Language : Thai
Default : No
Forced : No

Text #4
ID : 7
Format : PGS
Muxing mode : zlib
Codec ID : S_HDMV/PGS
Codec ID/Info : Picture based subtitle format used on BDs/HD-DVDs
Duration : 1 h 48 min
Bit rate : 74.2 kb/s
Count of elements : 3126
Stream size : 57.6 MiB (1%)
Title : Sub Thai PGS NETFLIX
Language : Thai
Default : Yes
Forced : No

Text #5
ID : 8
Format : UTF-8
Codec ID : S_TEXT/UTF8
Codec ID/Info : UTF-8 Plain Text
Duration : 1 h 48 min
Bit rate : 82 b/s
Count of elements : 1976
Stream size : 65.5 KiB (0%)
Title : Sub English SRT
Language : English
Default : No
Forced : No

DOWNLOAD


PART01 |||| PART02 |||| PART03 |||| PART04 |||| PART05

PART01 |||| PART02 |||| PART03 |||| PART04 |||| PART05

PART01 |||| PART02 |||| PART03 |||| PART04 |||| PART05

PART01 |||| PART02 |||| PART03 |||| PART04 |||| PART05

PART01 |||| PART02 |||| PART03 |||| PART04 |||| PART05


Leave A Reply

อีเมล์ของคุณจะไม่แสดงให้เห็น Your email address will not be published.

%d bloggers like this: