[MINI Super-HQ] A Family Tour (2018) [1080p] [พากย์ไทย 2.0 + เสียงจีน 5.1] [บรรยายอังกฤษ] [เสียงไทยมาสเตอร์ + ซับอังกฤษ] [PANDAFILE]

0

โหลดหนัง A Family Tour (2018)

A Family Tour (2018) 1h 47min | Drama | 29 September 2018 (Germany) Summary: A filmmaker who has been living in exile in Hong Kong visits a festival in Taipei to present a film that has been banned in Mainland China. With her husband and child in tow, she has timed ... See full summary »
Countries: Taiwan, Hong Kong, Singapore, MalaysiaLanguages: Mandarin, Cantonese, Min Nan

เรื่องย่อ A Family Tour (2018)

หยางนักสร้างภาพยนต์ที่ถูกทางการจีนแบนเพราะสร้างภาพยนต์ที่ส่งผลแง่ลบต่อจีน ซึ่งแม่ของเธอนั้นได้มาเที่ยวที่ไต้หวัน โดยเดินทางมาจากจีน หยางจึงมาพบแม่เธอและชวนแม่ไปอยู่ฮ่องกงด้วยกัน หยางจะชวนแม่เธอได้สำเร็จหรือไม่ความสัมพันธุ์ระหว่างแม่ลูกจะเป็นอย่างไร

Complete name : [MINI Super-HQ]_A.Family.Tour.2018.1080p.BluRay.x264.THM.One2loadup.com.mkv
Format : Matroska
Format version : Version 4
File size : 3.71 GiB
Duration : 1 h 48 min
Overall bit rate : 4 885 kb/s
Movie name : [MINI Super-HQ]_A.Family.Tour.2018.1080p.BluRay.x264.THM.One2loadup.com
Encoded date : UTC 2020-05-14 15:11:12
Writing application : mkvmerge v9.8.0 (‘Kuglblids’) 64bit
Writing library : libebml v1.3.4 + libmatroska v1.4.5

Video
ID : 1
Format : AVC
Format/Info : Advanced Video Codec
Format profile : [email protected]
Format settings : CABAC / 4 Ref Frames
Format settings, CABAC : Yes
Format settings, ReFrames : 4 frames
Codec ID : V_MPEG4/ISO/AVC
Duration : 1 h 48 min
Bit rate : 3 827 kb/s
Width : 1 920 pixels
Height : 1 040 pixels
Display aspect ratio : 1.85:1
Frame rate mode : Constant
Frame rate : 29.970 (30000/1001) FPS
Color space : YUV
Chroma subsampling : 4:2:0
Bit depth : 8 bits
Scan type : Progressive
Bits/(Pixel*Frame) : 0.064
Stream size : 2.90 GiB (78%)
Title : [MINI Super-HQ]_A.Family.Tour.2018.1080p.BluRay.x264.THM.One2loadup.com
Writing library : x264 core 157 r2935 545de2f
Encoding settings : cabac=1 / ref=3 / deblock=1:0:0 / analyse=0x3:0x133 / me=umh / subme=11 / psy=1 / psy_rd=1.00:0.00 / mixed_ref=1 / me_range=48 / chroma_me=1 / trellis=2 / 8x8dct=1 / cqm=0 / deadzone=21,11 / fast_pskip=1 / chroma_qp_offset=-2 / threads=12 / lookahead_threads=1 / sliced_threads=0 / nr=0 / decimate=1 / interlaced=0 / bluray_compat=0 / constrained_intra=0 / bframes=3 / b_pyramid=2 / b_adapt=1 / b_bias=0 / direct=3 / weightb=1 / open_gop=0 / weightp=2 / keyint=300 / keyint_min=30 / scenecut=40 / intra_refresh=0 / rc_lookahead=60 / rc=2pass / mbtree=1 / bitrate=3827 / ratetol=1.0 / qcomp=0.60 / qpmin=0 / qpmax=69 / qpstep=4 / cplxblur=20.0 / qblur=0.5 / vbv_maxrate=25000 / vbv_bufsize=31250 / nal_hrd=none / filler=0 / ip_ratio=1.40 / aq=1:1.00
Language : Chinese
Default : Yes
Forced : Yes
Color range : Limited
Color primaries : BT.709
Transfer characteristics : BT.709
Matrix coefficients : BT.709

Audio #1
ID : 2
Format : AC-3
Format/Info : Audio Coding 3
Commercial name : Dolby Digital
Codec ID : A_AC3
Duration : 1 h 48 min
Bit rate mode : Constant
Bit rate : 384 kb/s
Channel(s) : 2 channels
Channel layout : L R
Sampling rate : 48.0 kHz
Frame rate : 31.250 FPS (1536 SPF)
Bit depth : 16 bits
Compression mode : Lossy
Stream size : 298 MiB (8%)
Title : Thai Master
Language : Thai
Service kind : Complete Main
Default : Yes
Forced : Yes

Audio #2
ID : 3
Format : AC-3
Format/Info : Audio Coding 3
Commercial name : Dolby Digital
Codec ID : A_AC3
Duration : 1 h 48 min
Bit rate mode : Constant
Bit rate : 640 kb/s
Channel(s) : 6 channels
Channel layout : L R C LFE Ls Rs
Sampling rate : 48.0 kHz
Frame rate : 31.250 FPS (1536 SPF)
Bit depth : 16 bits
Compression mode : Lossy
Stream size : 497 MiB (13%)
Title : Chinese 5.1
Language : Chinese
Service kind : Complete Main
Default : No
Forced : No

Text
ID : 4
Format : PGS
Codec ID : S_HDMV/PGS
Codec ID/Info : Picture based subtitle format used on BDs/HD-DVDs
Duration : 1 h 44 min
Bit rate : 32.3 kb/s
Count of elements : 1745
Stream size : 24.2 MiB (1%)
Title : English
Language : English
Default : Yes
Forced : Yes

Menu
00:00:00.000 : :Chapter 1
00:07:55.542 : :Chapter 2
00:19:05.578 : :Chapter 3
00:27:42.194 : :Chapter 4
00:36:27.619 : :Chapter 5
00:44:50.054 : :Chapter 6
00:55:05.669 : :Chapter 7
01:02:32.015 : :Chapter 8
01:14:07.476 : :Chapter 9
01:20:48.977 : :Chapter 10
01:32:39.554 : :Chapter 11
01:40:30.424 : :Chapter 12

DOWNLOAD


PART01 |||| PART02 |||| PART03 |||| PART04

PART01 |||| PART02 |||| PART03 |||| PART04

PART01 |||| PART02 |||| PART03 |||| PART04

PART01 |||| PART02 |||| PART03 |||| PART04

PART01 |||| PART02 |||| PART03 |||| PART04


Leave A Reply

Your email address will not be published.

%d bloggers like this: