[MINI Super-HQ] 7500 (2019) รหัสมฤตยู [1080p] [พากย์อังกฤษ DTS] [Soundtrack บรรยายไทย + อังกฤษ] [เสียงอังกฤษ + ซับไทย] [PANDAFILE]

0

โหลดหนัง 7500 (2019) รหัสมฤตยู

7500 (2019) 1h 33min | Action, Drama, Thriller | 18 June 2020 (USA) Summary: When terrorists try to seize control of a Berlin-Paris flight, a soft-spoken young American co-pilot struggles to save the lives of the passengers and crew while forging a surprising connection with one of the hijackers.
Countries: Germany, Austria, USALanguages: English, German, Turkish, Arabic

เรื่องย่อ 7500 (2019) รหัสมฤตยู

ภาพยนตร์เรื่องแรก เขียนและกำกับโดย: Patrick Vollrath นำแสดงโดย: โจเซฟ กอร์ดอน – เลวิตต์ เกี่ยวกับเครื่องบินก่อการร้ายร่วมผลิตระหว่างประเทศระหว่างออสเตรียเยอรมนีและสหรัฐอเมริกาเหตุการณ์จากห้องนักบินเที่ยวบินจากเบอร์ลินไปปารีส กิจวัตรประจำวันในห้องนักบินของแอร์บัส A319 ลุ้นระทึกกับเหตุการณ์ผู้ก่อการร้ายพยายามยึดการควบคุมเที่ยวบินเบอร์ลิน-ปารีสนักบินต่อสู้เพื่อจะรักษาชีวิตของผู้โดยสารและลูกเรือ แต่ในขณะเดียวกันก็ต้องเชื่อมโยงกับผู้จี้เครื่องบินคนหนึ่งและ 7500 คือรหัสฉุกเฉินสำหรับการจี้เครื่องบิน!!!

Complete name : [MINI Super-HQ]_7500.2019.1080p.BluRay.x264.DTS.THM.One2loadup.com.mkv
Format : Matroska
Format version : Version 4
File size : 3.65 GiB
Duration : 1 h 33 min
Overall bit rate : 5 617 kb/s
Movie name : [MINI Super-HQ]_7500.2019.1080p.BluRay.x264.DTS.THM.One2loadup.com
Encoded date : UTC 2020-07-05 18:01:40
Writing application : mkvmerge v9.8.0 (‘Kuglblids’) 64bit
Writing library : libebml v1.3.4 + libmatroska v1.4.5

Video
ID : 1
Format : AVC
Format/Info : Advanced Video Codec
Format profile : [email protected]
Format settings : CABAC / 4 Ref Frames
Format settings, CABAC : Yes
Format settings, ReFrames : 4 frames
Codec ID : V_MPEG4/ISO/AVC
Duration : 1 h 33 min
Bit rate : 4 647 kb/s
Width : 1 920 pixels
Height : 804 pixels
Display aspect ratio : 2.40:1
Frame rate mode : Constant
Frame rate : 24.000 FPS
Color space : YUV
Chroma subsampling : 4:2:0
Bit depth : 8 bits
Scan type : Progressive
Bits/(Pixel*Frame) : 0.125
Stream size : 3.02 GiB (83%)
Title : [MINI Super-HQ]_7500.2019.1080p.BluRay.x264.DTS.THM.One2loadup.com
Writing library : x264 core 157 r2935 545de2f
Encoding settings : cabac=1 / ref=3 / deblock=1:0:0 / analyse=0x3:0x133 / me=umh / subme=11 / psy=1 / psy_rd=1.00:0.00 / mixed_ref=1 / me_range=48 / chroma_me=1 / trellis=2 / 8x8dct=1 / cqm=0 / deadzone=21,11 / fast_pskip=1 / chroma_qp_offset=-2 / threads=12 / lookahead_threads=1 / sliced_threads=0 / nr=0 / decimate=1 / interlaced=0 / bluray_compat=0 / constrained_intra=0 / bframes=3 / b_pyramid=2 / b_adapt=1 / b_bias=0 / direct=3 / weightb=1 / open_gop=0 / weightp=2 / keyint=240 / keyint_min=24 / scenecut=40 / intra_refresh=0 / rc_lookahead=60 / rc=2pass / mbtree=1 / bitrate=4647 / ratetol=1.0 / qcomp=0.60 / qpmin=0 / qpmax=69 / qpstep=4 / cplxblur=20.0 / qblur=0.5 / vbv_maxrate=25000 / vbv_bufsize=31250 / nal_hrd=none / filler=0 / ip_ratio=1.40 / aq=1:1.00
Language : English
Default : Yes
Forced : Yes
Color range : Limited
Color primaries : BT.709
Transfer characteristics : BT.709
Matrix coefficients : BT.709

Audio
ID : 2
Format : DTS
Format/Info : Digital Theater Systems
Codec ID : A_DTS
Duration : 1 h 33 min
Bit rate mode : Constant
Bit rate : 755 kb/s
Channel(s) : 6 channels
Channel layout : C L R Ls Rs LFE
Sampling rate : 48.0 kHz
Frame rate : 93.750 FPS (512 SPF)
Bit depth : 24 bits
Compression mode : Lossy
Stream size : 503 MiB (13%)
Title : English DTS
Language : English
Default : Yes
Forced : Yes

Text #1
ID : 3
Format : VobSub
Codec ID : S_VOBSUB
Codec ID/Info : Picture based subtitle format used on DVDs
Duration : 1 h 32 min
Bit rate : 4 738 b/s
Count of elements : 1134
Stream size : 3.15 MiB (0%)
Title : Thai 720p
Language : Thai
Default : No
Forced : No

Text #2
ID : 4
Format : VobSub
Codec ID : S_VOBSUB
Codec ID/Info : Picture based subtitle format used on DVDs
Duration : 1 h 32 min
Bit rate : 8 601 b/s
Count of elements : 1134
Stream size : 5.71 MiB (0%)
Title : Thai 1080p
Language : Thai
Default : Yes
Forced : Yes

Text #3
ID : 5
Format : VobSub
Codec ID : S_VOBSUB
Codec ID/Info : Picture based subtitle format used on DVDs
Duration : 1 h 32 min
Bit rate : 8 595 b/s
Count of elements : 1134
Stream size : 5.71 MiB (0%)
Title : Thai 1080p Yellow
Language : Thai
Default : No
Forced : No

Text #4
ID : 6
Format : VobSub
Codec ID : S_VOBSUB
Codec ID/Info : Picture based subtitle format used on DVDs
Duration : 1 h 32 min
Bit rate : 11.8 kb/s
Count of elements : 1134
Stream size : 7.85 MiB (0%)
Title : Thai 1080p Big
Language : Thai
Default : No
Forced : No

Text #5
ID : 7
Format : VobSub
Codec ID : S_VOBSUB
Codec ID/Info : Picture based subtitle format used on DVDs
Duration : 1 h 32 min
Bit rate : 8 148 b/s
Count of elements : 1134
Stream size : 5.41 MiB (0%)
Title : Thai 1080p Out
Language : Thai
Default : No
Forced : No

Text #6
ID : 8
Format : PGS
Codec ID : S_HDMV/PGS
Codec ID/Info : Picture based subtitle format used on BDs/HD-DVDs
Duration : 1 h 32 min
Bit rate : 36.6 kb/s
Count of elements : 2276
Stream size : 24.3 MiB (1%)
Title : Thai PGS
Language : Thai
Default : No
Forced : No

Text #7
ID : 9
Format : PGS
Codec ID : S_HDMV/PGS
Codec ID/Info : Picture based subtitle format used on BDs/HD-DVDs
Duration : 1 h 32 min
Bit rate : 36.7 kb/s
Count of elements : 2276
Stream size : 24.3 MiB (1%)
Title : Thai PGS Yellow
Language : Thai
Default : No
Forced : No

Text #8
ID : 10
Format : PGS
Codec ID : S_HDMV/PGS
Codec ID/Info : Picture based subtitle format used on BDs/HD-DVDs
Duration : 1 h 32 min
Bit rate : 54.6 kb/s
Count of elements : 2268
Stream size : 36.3 MiB (1%)
Title : Thai PGS Big
Language : Thai
Default : No
Forced : No

Text #9
ID : 11
Format : PGS
Codec ID : S_HDMV/PGS
Codec ID/Info : Picture based subtitle format used on BDs/HD-DVDs
Duration : 1 h 32 min
Bit rate : 34.5 kb/s
Count of elements : 2276
Stream size : 22.9 MiB (1%)
Title : Thai PGS Out
Language : Thai
Default : No
Forced : No

Text #10
ID : 12
Format : UTF-8
Codec ID : S_TEXT/UTF8
Codec ID/Info : UTF-8 Plain Text
Duration : 1 h 21 min
Bit rate : 56 b/s
Count of elements : 1068
Stream size : 34.0 KiB (0%)
Title : English
Language : English
Default : No
Forced : No

Text #11
ID : 13
Format : PGS
Codec ID : S_HDMV/PGS
Codec ID/Info : Picture based subtitle format used on BDs/HD-DVDs
Duration : 1 h 24 min
Bit rate : 9 809 b/s
Count of elements : 652
Stream size : 5.92 MiB (0%)
Title : English PGS
Language : English
Default : No
Forced : No

Menu
00:00:00.000 : :Chapter 1
00:13:02.167 : :Chapter 2
00:24:17.417 : :Chapter 3
00:35:51.958 : :Chapter 4
00:44:50.125 : :Chapter 5
00:55:39.875 : :Chapter 6
01:09:33.917 : :Chapter 7
01:21:56.542 : :Chapter 8

DOWNLOAD


PART01 |||| PART02 |||| PART03 |||| PART04

PART01 |||| PART02 |||| PART03 |||| PART04

PART01 |||| PART02 |||| PART03 |||| PART04

PART01 |||| PART02 |||| PART03 |||| PART04

PART01 |||| PART02 |||| PART03 |||| PART04



Disable Comments
%d bloggers like this: