[MINI Super-HQ] 300 (2006) 300 ขุนศึกพันธุ์สะท้านโลก [1080p] [พากย์ไทย 5.1 + เสียงอังกฤษ DTS] [บรรยายไทย + อังกฤษ] [เสียงไทย + ซับไทย] [DOSYAUPLOAD]

0

โหลดหนัง 300 (2006) 300 ขุนศึกพันธุ์สะท้านโลก

300 (2006) 1h 57min | Action, Drama | 9 March 2007 (USA) Summary: King Leonidas of Sparta and a force of 300 men fight the Persians at Thermopylae in 480 B.C.
Countries: USA, Canada, Bulgaria, AustraliaLanguages: English

เรื่องย่อ 300 (2006) 300 ขุนศึกพันธุ์สะท้านโลก

กษัตริย์เลโอนิดาส์ (เจอราร์ด บัทเลอร์) และกองทัพสปาร์ตัน 300 นายพลีชีพในการต่อสู้กับเซอร์เซสและกองทัพมหึมาแห่งเปอร์เซียในการเผชิญหน้ากับคู่ต่อสู้ที่มีกำลังท่วมท้นกำลังใจและการเสียสละของพวกเขากลายเป็นแรงบันดาลใจให้กับชาวกรีกทั้งมวลในการร่วมกันต่อสู้กับกองกำลังข้าศึกชาวเปอร์เซียการขีดเส้นบนผืนทรายเพื่อประชาธิปไตยภาพยนตร์ได้นำเอานวนิยายกราฟฟิคเรื่องดังของมิลเลอร์ (SinCity) มาสู่ความมีชีวิตด้วยการผสานไลฟ์แอ็คชั่นเข้ากับแบ็คกราวน์เสมือนจริงที่นำเสนอภาพตำนานประวัติศาสตร์โบราณในจินตนาการอันแจ่มชัดของเขา!!!

Complete name : [MINI Super-HQ]_300.2006.1080p.BrRip.DTS.x264.One2loadup.com.mkv
Format : Matroska
Format version : Version 4
File size : 3.97 GiB
Duration : 1 h 56 min
Overall bit rate : 4 876 kb/s
Movie name : [MINI Super-HQ]_300.2006.1080p.BrRip.DTS.x264.One2loadup.com
Encoded date : UTC 2010-02-22 21:41:31
Writing application : mkvmerge v5.9.0 (‘On The Loose’) built on Dec 9 2012 15:37:01
Writing library : libebml v1.3.0 + libmatroska v1.4.0

Video
ID : 1
Format : AVC
Format/Info : Advanced Video Codec
Format profile : [email protected]
Format settings : CABAC / 4 Ref Frames
Format settings, CABAC : Yes
Format settings, ReFrames : 4 frames
Codec ID : V_MPEG4/ISO/AVC
Duration : 1 h 56 min
Bit rate : 3 599 kb/s
Width : 1 920 pixels
Height : 800 pixels
Display aspect ratio : 2.40:1
Frame rate mode : Constant
Frame rate : 23.810 FPS
Color space : YUV
Chroma subsampling : 4:2:0
Bit depth : 8 bits
Scan type : Progressive
Bits/(Pixel*Frame) : 0.098
Stream size : 2.91 GiB (73%)
Title : [MINI Super-HQ]_300.2006.1080p.BrRip.DTS.x264.One2loadup.com
Writing library : x264 core 120
Encoding settings : cabac=1 / ref=3 / deblock=1:0:0 / analyse=0x3:0x113 / me=umh / subme=10 / psy=1 / psy_rd=1.00:0.00 / mixed_ref=1 / me_range=24 / chroma_me=1 / trellis=2 / 8x8dct=1 / cqm=0 / deadzone=21,11 / fast_pskip=1 / chroma_qp_offset=-2 / threads=12 / sliced_threads=0 / nr=0 / decimate=1 / interlaced=0 / bluray_compat=0 / constrained_intra=0 / bframes=3 / b_pyramid=2 / b_adapt=2 / b_bias=0 / direct=1 / weightb=1 / open_gop=0 / weightp=2 / keyint=240 / keyint_min=24 / scenecut=40 / intra_refresh=0 / rc_lookahead=50 / rc=2pass / mbtree=1 / bitrate=3599 / ratetol=1.0 / qcomp=0.60 / qpmin=3 / qpmax=69 / qpstep=4 / cplxblur=20.0 / qblur=0.5 / ip_ratio=1.40 / aq=1:1.00
Language : English
Default : Yes
Forced : No
Color range : Limited
Color primaries : BT.709
Transfer characteristics : BT.709
Matrix coefficients : BT.709

Audio #1
ID : 2
Format : AC-3
Format/Info : Audio Coding 3
Commercial name : Dolby Digital
Codec ID : A_AC3
Duration : 1 h 56 min
Bit rate mode : Constant
Bit rate : 448 kb/s
Channel(s) : 6 channels
Channel layout : L R C LFE Ls Rs
Sampling rate : 48.0 kHz
Frame rate : 31.250 FPS (1536 SPF)
Bit depth : 16 bits
Compression mode : Lossy
Stream size : 374 MiB (9%)
Title : Thai BluRay Master
Language : Thai
Service kind : Complete Main
Default : Yes
Forced : Yes

Audio #2
ID : 3
Format : DTS
Format/Info : Digital Theater Systems
Codec ID : A_DTS
Duration : 1 h 56 min
Bit rate mode : Constant
Bit rate : 755 kb/s
Channel(s) : 6 channels
Channel layout : C L R Ls Rs LFE
Sampling rate : 48.0 kHz
Frame rate : 93.750 FPS (512 SPF)
Bit depth : 24 bits
Compression mode : Lossy
Stream size : 629 MiB (15%)
Title : English DTS
Language : English
Default : No
Forced : No

Text #1
ID : 4
Format : VobSub
Codec ID : S_VOBSUB
Codec ID/Info : Picture based subtitle format used on DVDs
Title : Thai 480p
Language : Thai
Default : No
Forced : No

Text #2
ID : 5
Format : VobSub
Codec ID : S_VOBSUB
Codec ID/Info : Picture based subtitle format used on DVDs
Title : Thai 720p
Language : Thai
Default : No
Forced : No

Text #3
ID : 6
Format : VobSub
Codec ID : S_VOBSUB
Codec ID/Info : Picture based subtitle format used on DVDs
Title : Thai 1080p
Language : Thai
Default : Yes
Forced : Yes

Text #4
ID : 7
Format : VobSub
Codec ID : S_VOBSUB
Codec ID/Info : Picture based subtitle format used on DVDs
Title : Thai 1080p BluRay Master [Out]
Language : Thai
Default : No
Forced : No

Text #5
ID : 8
Format : VobSub
Codec ID : S_VOBSUB
Codec ID/Info : Picture based subtitle format used on DVDs
Title : Thai 1080p BIG
Language : Thai
Default : No
Forced : No

Text #6
ID : 9
Format : VobSub
Codec ID : S_VOBSUB
Codec ID/Info : Picture based subtitle format used on DVDs
Title : Thai 1080p BluRay Master [Out&BIG]
Language : Thai
Default : No
Forced : No

Text #7
ID : 10
Format : PGS
Codec ID : S_HDMV/PGS
Codec ID/Info : Picture based subtitle format used on BDs/HD-DVDs
Title : Thai PGS BluRay Master
Language : Thai
Default : No
Forced : No

Text #8
ID : 11
Format : PGS
Codec ID : S_HDMV/PGS
Codec ID/Info : Picture based subtitle format used on BDs/HD-DVDs
Title : Thai PGS BluRay Master [Out]
Language : Thai
Default : No
Forced : No

Text #9
ID : 12
Format : UTF-8
Codec ID : S_TEXT/UTF8
Codec ID/Info : UTF-8 Plain Text
Title : English
Language : English
Default : No
Forced : No

Menu
00:00:00.000 : en:00:00:00.000
00:05:16.983 : en:00:05:16.983
00:10:23.289 : en:00:10:23.289
00:13:16.796 : en:00:13:16.796
00:16:52.178 : en:00:16:52.178
00:19:44.350 : en:00:19:44.350
00:22:28.347 : en:00:22:28.347
00:27:03.622 : en:00:27:03.622
00:29:16.254 : en:00:29:16.254
00:33:17.829 : en:00:33:17.829
00:35:06.771 : en:00:35:06.771
00:37:49.434 : en:00:37:49.434
00:40:46.277 : en:00:40:46.277
00:44:10.314 : en:00:44:10.314
00:49:17.288 : en:00:49:17.288
00:52:46.330 : en:00:52:46.330
00:55:33.664 : en:00:55:33.664
01:01:40.864 : en:01:01:40.864
01:05:20.750 : en:01:05:20.750
01:08:42.952 : en:01:08:42.952
01:12:43.192 : en:01:12:43.192
01:15:50.379 : en:01:15:50.379
01:18:38.380 : en:01:18:38.380
01:22:20.936 : en:01:22:20.936
01:26:43.532 : en:01:26:43.532
01:29:11.513 : en:01:29:11.513
01:33:59.217 : en:01:33:59.217
01:38:54.595 : en:01:38:54.595
01:43:26.200 : en:01:43:26.200
01:49:03.537 : en:01:49:03.537

DOWNLOAD


PART01 |||| PART02 |||| PART03 |||| PART04 |||| PART05

PART01 |||| PART02 |||| PART03 |||| PART04 |||| PART05

PART01 |||| PART02 |||| PART03 |||| PART04 |||| PART05

PART01 |||| PART02 |||| PART03 |||| PART04 |||| PART05

PART01 |||| PART02 |||| PART03 |||| PART04 |||| PART05



แจ้งหนังเสีย หรือโหลดไม่ได้ ทั้งลิ้งฟรีและ vip สามารถกดที่รูปด้านบนนี้ได้เลย

: Disable Comments
%d bloggers like this: