[MINI Super-HQ] 14 Blades (2010) 8 ดาบทรมาน 6 ดาบสังหาร [1080p] [พากย์ไทย 5.1 + เสียงจีน DTS] [บรรยายไทย + อังกฤษ] [เสียงไทย + ซับไทย] [OPENLOAD]

0

14 Blades (2010)

โหลดหนัง 14 Blades (2010) 8 ดาบทรมาน 6 ดาบสังหาร

Jin yi wei (2010) 1h 54min | Action, History, Thriller | 4 February 2010 (China) Summary: A kung fu thriller set during the Ming Dynasty and centered on a secret service agent (Donnie Yen) in the emperor's court who is betrayed and then hunted by his colleagues.
Countries: Hong Kong, China, SingaporeLanguages: Mandarin

เรื่องย่อ 14 Blades (2010) 8 ดาบทรมาน 6 ดาบสังหาร

ในสมัยราชวงศ์หมิง เพื่อพิทักษ์องค์จักพรรดิประมุขสูงสุดของแผ่นดิน นอกจากราชองครักษ์ทั่วไปแล้ว ยังมีหน่วยองครักษ์มืดหน่วยงานลับที่ไม่เคยปรากฏนามองครักษ์ในหน่วยนี้เป็นเด็กกำพร้าที่ถูกเก็บมาฝึกฝนวิทยายุทธ์อย่างลับๆ เพื่อเป็นนักฆ่า ไร้ความปราณี โดยมีอาวุธประจำกายคือ มีด 14 เล่ม พวกเขาอยู่เหนือกฏหมาย มีอำนาจสังหารโดยเบ็ดเสร็จ เพื่อสนองประกาศิตแห่งองค์ราชันย์แต่เพียงผู้เดียว เมื่อราชสำนักถูกยึดครองโดยขันทีกังฉินสุดยอดฝีมือของหน่วยองครักษ์มืด ชิงหลง (ดอนนี่ เยน) จึง ถูกมอบหมายให้ปฏิบัติภารกิจสำคัญเพื่อทวงพระราชอำนาจคืนแด่องค์จักรพรรดิ หากระหว่างปฏิบัติการความเชื่อมั่นต่อองค์กรกลับถูกสั่นคลอน เมื่อชิงหลงถูกหักหลังและถูกไล่ล่าเอาชีวิต ทว่าชิงหลงหาได้หนีเอาตัวรอดไม่ เขากลับเลือกที่จะควานหาตัวการและปลุกระดมผู้จงรักภักดีองค์จักรพรรดิให้ ลุกขึ้นมาต่อต้านขันทีชั่วพร้อมๆ กับกอบกู้ราชบัลลังก์ งานนี้กลุ่มสุดยอดนักฆ่าแห่งยุทธภพ “องครักษ์เสื้อแพร” ซึ่งเคยเป็นพี่น้องร่วมเป็นร่วมตายจึงต้องหันมาห้ำหั่นกันเอง

Complete name : [MINI Super-HQ]_14.Blades.2010.1080p.BrRip.DTS.x264.One2loadup.com.mkv
Format : Matroska
Format version : Version 4
File size : 4.22 GiB
Duration : 1 h 52 min
Overall bit rate : 5 353 kb/s
Movie name : [MINI Super-HQ]_14.Blades.2010.1080p.BrRip.DTS.x264.One2loadup.com
Encoded date : UTC 2010-02-22 21:41:31
Writing application : mkvmerge v5.9.0 (‘On The Loose’) built on Dec 9 2012 15:37:01
Writing library : libebml v1.3.0 + libmatroska v1.4.0

Video
ID : 1
Format : AVC
Format/Info : Advanced Video Codec
Format profile : [email protected]
Format settings : CABAC / 4 Ref Frames
Format settings, CABAC : Yes
Format settings, ReFrames : 4 frames
Muxing mode : Header stripping
Codec ID : V_MPEG4/ISO/AVC
Duration : 1 h 52 min
Bit rate : 3 400 kb/s
Width : 1 920 pixels
Height : 816 pixels
Display aspect ratio : 2.35:1
Frame rate mode : Constant
Frame rate : 24.000 FPS
Color space : YUV
Chroma subsampling : 4:2:0
Bit depth : 8 bits
Scan type : Progressive
Bits/(Pixel*Frame) : 0.090
Stream size : 2.59 GiB (61%)
Title : [MINI Super-HQ]_14.Blades.2010.1080p.BrRip.DTS.x264.One2loadup.com
Writing library : x264 core 146 r2538 121396c
Encoding settings : cabac=1 / ref=4 / deblock=1:-3:-3 / analyse=0x3:0x133 / me=umh / subme=11 / psy=1 / psy_rd=1.00:0.15 / mixed_ref=1 / me_range=48 / chroma_me=1 / trellis=2 / 8x8dct=1 / cqm=0 / deadzone=21,11 / fast_pskip=0 / chroma_qp_offset=-3 / threads=12 / lookahead_threads=1 / sliced_threads=0 / nr=0 / decimate=1 / interlaced=0 / bluray_compat=0 / constrained_intra=0 / bframes=4 / b_pyramid=2 / b_adapt=2 / b_bias=0 / direct=3 / weightb=1 / open_gop=0 / weightp=2 / keyint=240 / keyint_min=23 / scenecut=40 / intra_refresh=0 / rc_lookahead=120 / rc=2pass / mbtree=1 / bitrate=3400 / ratetol=1.0 / qcomp=0.60 / qpmin=0 / qpmax=37 / qpstep=4 / cplxblur=20.0 / qblur=0.5 / vbv_maxrate=30000 / vbv_bufsize=38000 / nal_hrd=none / filler=0 / ip_ratio=1.10 / aq=3:0.80
Language : Chinese
Default : Yes
Forced : No

Audio #1
ID : 2
Format : AC-3
Format/Info : Audio Coding 3
Commercial name : Dolby Digital
Muxing mode : Header stripping
Codec ID : A_AC3
Duration : 1 h 52 min
Bit rate mode : Constant
Bit rate : 448 kb/s
Channel(s) : 6 channels
Channel layout : L R C LFE Ls Rs
Sampling rate : 48.0 kHz
Frame rate : 31.250 FPS (1536 SPF)
Bit depth : 16 bits
Compression mode : Lossy
Stream size : 362 MiB (8%)
Title : Thai 5.1
Language : Thai
Service kind : Complete Main
Default : Yes
Forced : Yes

Audio #2
ID : 3
Format : DTS
Format/Info : Digital Theater Systems
Muxing mode : Header stripping
Codec ID : A_DTS
Duration : 1 h 52 min
Bit rate mode : Constant
Bit rate : 1 510 kb/s
Channel(s) : 6 channels
Channel layout : C L R Ls Rs LFE
Sampling rate : 48.0 kHz
Frame rate : 93.750 FPS (512 SPF)
Bit depth : 24 bits
Compression mode : Lossy
Stream size : 1.19 GiB (28%)
Title : Chinese DTS
Language : Chinese
Default : No
Forced : No

Text #1
ID : 4
Format : VobSub
Muxing mode : zlib
Codec ID : S_VOBSUB
Codec ID/Info : Picture based subtitle format used on DVDs
Title : Thai
Language : Thai
Default : Yes
Forced : Yes

Text #2
ID : 5
Format : UTF-8
Codec ID : S_TEXT/UTF8
Codec ID/Info : UTF-8 Plain Text
Title : English
Language : English
Default : No
Forced : No

DOWNLOAD


PART01 |||| PART02 |||| PART03 |||| PART04 |||| PART05

PART01 |||| PART02 |||| PART03 |||| PART04 |||| PART05

PART01 |||| PART02 |||| PART03 |||| PART04 |||| PART05

PART01 |||| PART02 |||| PART03 |||| PART04 |||| PART05


Leave A Reply

Your email address will not be published.

%d bloggers like this: