[MINI Suepr-HQ] Last Christmas (2019) ลาสต์ คริสต์มาส [1080p] [พากย์ไทย 5.1 + เสียงอังกฤษ DTS] [บรรยายไทย + อังกฤษ] [เสียงไทย + ซับไทย] [PANDAFILE]

0

โหลดหนัง Last Christmas (2019) ลาสต์ คริสต์มาส

Last Christmas | November 8, 2019 (United States) Summary: Kate is a young woman subscribed to bad decisions. Working as an elf in a year round Christmas store is not good for the wannabe singer. However, she meets Tom there. Her life takes a new tu... Read all
Countries: United Kingdom, United States, ChinaLanguages: English, Serbo-Croatian, Mandarin, French

เรื่องย่อ Last Christmas (2019) ลาสต์ คริสต์มาส

เอมิเลีย คลาร์ก (Game of Thrones), เฮนรี่ โกลดิ้ง (A Simple Favor, Crazy Rich Asians), มิเชลล์ โหย่ว และเอ็มม่า ธอมป์สัน ร่วมแสดงใน Last Christmas ภาพยนตร์กำกับโดย พอล ฟีก (A Simple Favor, Spy, Bridesmaids) ภาพยนตร์โรแมนติคคอเมดี้เรื่องนี้ได้รับแรงบันดาลใจจ ากเพลงของจอร์จ ไมเคิล ภาพยนตร์เขียนบทโดยเอ็มม่า ธอมป์สัน (Sense and Sensibility, Bridget Jones’s Baby) และไบรโอนี่ คิมมิงส์ เคท (เอมิเลีย คลาร์ก) แต่งตัวรุ่มร่ามอยู่ในชุดเอลฟ์เธอทำงานอยู่ในร้านขายของคริสต์มาสต์ในลอนดอน กำลังอยู่ในช่วงย่ำแย่ในชีวิต และทอม (เฮนรี่ โกลดิ้ง) ชายหนุ่มที่ดูดีเกินจริงได้เข้ามาในชีวิตเธอและพาเธอก้าวข้ามอุปสรรคในชีวิต และลอนดอนก็เข้าสู่ช่วงมหัศจรรย์ของปี บางครั้ง คุณก็เพียงแค่ปล่อยให้หิมะตกไป ฟังเสียงของหัวใจและมีศรัทธา Last Christmas มีเพลงของจอร์จ ไมเคิลในภาพยนตร์ รวมถึงเพลงชื่อเดียวกับภาพยนตร์ นอกจากนี้ ยังมีเพลงของจอร์จ ไมเคิล ที่ยังไม่ได้ปล่อยออกมา
จอร์จ ไมเคิล คือศิลปินระดับตำนานที่เคยได้รับรางวัลแกรมมี่ มียอดขายอัลบั้มมากกว่า 115 ล้านอัลบั้ม มีเพลงขึ้นอันดับ 1 ถึง 10 เพลงภาพยนตร์อำนวยการสร้างโดย เดวิด ลิฟวิงสโตน จากคาลามิตี้ฟิล์มส์, เอ็มม่า ธอมป์สัน, พอล ฟีก และเจสซี่ เฮนเดอร์สันจากฟีกโค เอนเตอร์เทนเมนท์ ภาพยนตร์บริหารงานสร้างโดย ซาร่าห์ แบรดชอว์!!!

Complete name : [MINI Super-HQ]_Last.Christmas.2019.1080p.BrRip.DTS.x264.One2loadup.com.mkv
Format : Matroska
Format version : Version 4
File size : 3.80 GiB
Duration : 1 h 42 min
Overall bit rate : 5 287 kb/s
Movie name : [MINI Super-HQ]_Last.Christmas.2019.1080p.BrRip.DTS.x264.One2loadup.com
Encoded date : UTC 2010-02-22 21:41:31
Writing application : mkvmerge v5.9.0 (‘On The Loose’) built on Dec 9 2012 15:37:01
Writing library : libebml v1.3.0 + libmatroska v1.4.0

Video
ID : 1
Format : AVC
Format/Info : Advanced Video Codec
Format profile : [email protected]
Format settings : CABAC / 4 Ref Frames
Format settings, CABAC : Yes
Format settings, ReFrames : 4 frames
Codec ID : V_MPEG4/ISO/AVC
Duration : 1 h 42 min
Bit rate : 3 950 kb/s
Width : 1 920 pixels
Height : 960 pixels
Display aspect ratio : 2.000
Frame rate mode : Constant
Frame rate : 23.976 (24000/1001) FPS
Color space : YUV
Chroma subsampling : 4:2:0
Bit depth : 8 bits
Scan type : Progressive
Bits/(Pixel*Frame) : 0.089
Stream size : 2.90 GiB (76%)
Title : [MINI Super-HQ]_Last.Christmas.2019.1080p.BrRip.DTS.x264.One2loadup.com
Writing library : x264 core 146 r2538 121396c
Encoding settings : cabac=1 / ref=5 / deblock=1:-3:-3 / analyse=0x3:0x133 / me=tesa / subme=11 / psy=1 / psy_rd=1.00:0.15 / mixed_ref=1 / me_range=48 / chroma_me=1 / trellis=2 / 8x8dct=1 / cqm=0 / deadzone=21,11 / fast_pskip=1 / chroma_qp_offset=-3 / threads=54 / lookahead_threads=4 / sliced_threads=0 / nr=0 / decimate=1 / interlaced=0 / bluray_compat=1 / constrained_intra=0 / bframes=3 / b_pyramid=1 / b_adapt=2 / b_bias=0 / direct=3 / weightb=1 / open_gop=0 / weightp=1 / keyint=250 / keyint_min=1 / scenecut=40 / intra_refresh=0 / rc_lookahead=60 / rc=2pass / mbtree=1 / bitrate=3950 / ratetol=1.0 / qcomp=0.60 / qpmin=0 / qpmax=69 / qpstep=4 / cplxblur=20.0 / qblur=0.5 / ip_ratio=1.40 / aq=1:1.30
Language : English
Default : Yes
Forced : No

Audio #1
ID : 2
Format : AC-3
Format/Info : Audio Coding 3
Commercial name : Dolby Digital
Codec ID : A_AC3
Duration : 1 h 42 min
Bit rate mode : Constant
Bit rate : 384 kb/s
Channel(s) : 6 channels
Channel layout : L R C LFE Ls Rs
Sampling rate : 48.0 kHz
Frame rate : 31.250 FPS (1536 SPF)
Bit depth : 16 bits
Compression mode : Lossy
Stream size : 282 MiB (7%)
Title : Thai DVD Master
Language : Thai
Service kind : Complete Main
Default : Yes
Forced : Yes

Audio #2
ID : 3
Format : DTS
Format/Info : Digital Theater Systems
Codec ID : A_DTS
Duration : 1 h 42 min
Bit rate mode : Constant
Bit rate : 755 kb/s
Channel(s) : 6 channels
Channel layout : C L R Ls Rs LFE
Sampling rate : 48.0 kHz
Frame rate : 93.750 FPS (512 SPF)
Bit depth : 24 bits
Compression mode : Lossy
Stream size : 555 MiB (14%)
Title : English DTS
Language : English
Default : No
Forced : No

Text #1
ID : 4
Format : VobSub
Codec ID : S_VOBSUB
Codec ID/Info : Picture based subtitle format used on DVDs
Title : Thai 720p
Language : Thai
Default : No
Forced : No

Text #2
ID : 5
Format : VobSub
Codec ID : S_VOBSUB
Codec ID/Info : Picture based subtitle format used on DVDs
Title : Thai 1080p
Language : Thai
Default : Yes
Forced : Yes

Text #3
ID : 6
Format : VobSub
Codec ID : S_VOBSUB
Codec ID/Info : Picture based subtitle format used on DVDs
Title : Thai 1080p Yellow
Language : Thai
Default : No
Forced : No

Text #4
ID : 7
Format : VobSub
Codec ID : S_VOBSUB
Codec ID/Info : Picture based subtitle format used on DVDs
Title : Thai 1080p BIG
Language : Thai
Default : No
Forced : No

Text #5
ID : 8
Format : PGS
Codec ID : S_HDMV/PGS
Codec ID/Info : Picture based subtitle format used on BDs/HD-DVDs
Title : Thai PGS
Language : Thai
Default : No
Forced : No

Text #6
ID : 9
Format : PGS
Codec ID : S_HDMV/PGS
Codec ID/Info : Picture based subtitle format used on BDs/HD-DVDs
Title : Thai PGS Yellow
Language : Thai
Default : No
Forced : No

Text #7
ID : 10
Format : PGS
Codec ID : S_HDMV/PGS
Codec ID/Info : Picture based subtitle format used on BDs/HD-DVDs
Title : English
Language : English
Default : No
Forced : No

Menu
00:00:00.000 : en:Chapter 1
00:05:48.390 : en:Chapter 2
00:10:26.960 : en:Chapter 3
00:16:47.340 : en:Chapter 4
00:23:21.108 : en:Chapter 5
00:26:15.824 : en:Chapter 6
00:29:39.236 : en:Chapter 7
00:36:00.367 : en:Chapter 8
00:40:52.158 : en:Chapter 9
00:45:31.312 : en:Chapter 10
00:49:55.618 : en:Chapter 11
00:52:26.769 : en:Chapter 12
00:58:10.821 : en:Chapter 13
01:05:48.445 : en:Chapter 14
01:10:31.352 : en:Chapter 15
01:13:50.593 : en:Chapter 16
01:19:31.225 : en:Chapter 17
01:24:23.767 : en:Chapter 18
01:30:42.979 : en:Chapter 19
01:37:41.814 : en:Chapter 20

DOWNLOAD


PART01 |||| PART02 |||| PART03 |||| PART04

PART01 |||| PART02 |||| PART03 |||| PART04

PART01 |||| PART02 |||| PART03 |||| PART04

PART01 |||| PART02 |||| PART03 |||| PART04

PART01 |||| PART02 |||| PART03 |||| PART04


Leave A Reply

อีเมล์ของคุณจะไม่แสดงให้เห็น Your email address will not be published.

%d bloggers like this: