[MINI Suepr-HQ] It Chapter Two (2019) อิท โผล่จากนรก ภาค 2 [1080p] [พากย์ไทย 5.1 + เสียงอังกฤษ DTS] [บรรยายไทย + อังกฤษ] [เสียงไทย + ซับไทย] [PANDAFILE]

0

โหลดหนัง It Chapter Two (2019) อิท โผล่จากนรก ภาค 2

Es Kapitel 2 (2019) 2h 49min | Drama, Fantasy, Horror | 5 September 2019 (Germany) Summary: Twenty-seven years after their first encounter with the terrifying Pennywise, the Losers Club have grown up and moved away, until a devastating phone call brings them back.
Countries: Canada, USALanguages: English

เรื่องย่อ It Chapter Two (2019) อิท โผล่จากนรก ภาค 2

เพราะตัวตลกปีศาจเพนนี่ไวซ์จะกลับมาเยือนเมืองเดอร์รี่ รัฐเมนในทุก ๆ 27 ปี It: Chapter Two – อิท โผล่จากนรก 2 จึงพาเหล่าตัวละครที่แยกย้ายจากกันไปนานกลับมารวมตัวกันอีกครั้งในวัยผู้ใหญ่ ซึ่งนับเป็นเวลากว่า 3 ศตวรรษหลังจากเหตุการณ์สยองเกิดขึ้นกับพวกเขาตอนเด็ก ในภาพยนตร์ภาคแรก สานต่อความสำเร็จจาก IT เมื่อปี 2017 โดยฝีมือกำกับของ แอนดี้ มุสชีเอตติ ผู้พาภาพยนตร์กวาดรายได้ทั่วโลกสูงถึง 700 ล้านเหรียญสหรัฐ ในภาคต่อนี้ได้ตัวนักแสดงมากฝีมือมากมายมารับบทเป็น กลุ่มขี้แพ้ ในวัยผู้ใหญ่ นำโดยผู้เข้าชิงรางวัลออสการ์ เจสสิก้า แชสเทน (ภาพยนตร์ Zero Dark Thirty, Mama) รับบท เบเวอร์ลี่, เจมส์ แม็คอะวอย (ภาพยนตร์ Split, Glass) รับบท บิล, บิล เฮเดอร์ (ซีรีส์โทรทัศน์ Barry, The Skeleton Twins) รับบท ริชชี่, ไอเซห์ มุสตาฟา (ภาพยนตร์โทรทัศน์ Shadowhunters: The Mortal Instruments) รับบท ไมค์, เจย์ ไรอัน (ภาพยนตร์โทรทัศน์ Mary Kills People) รับบท เบน, เจมส์ แรนซัน (ซีรีส์ The Wire) รับบท เอ็ดดี้ และแอนดี้ บีน (ภาพยนตร์ Allegiant, Power) รับบท สแตนลีย์ ร่วมด้วยทีมนักแสดงเด็กหน้าเก่าผู้กลับมารับบทสมาชิก กลุ่มขี้แพ้ นำโดย โซเฟีย ลิลลิส รับบท เบเวอร์ลี่, แจเดน มาร์เทล รับบท บิล, ฟินน์ วูล์ฟฮาร์ด รับบท ริชชี่, โชเซน จาคอบส์ รับบท ไมค์, เจเรมี เรย์ เทย์เลอร์ รับบท เบน, แจ็ค ดีแลน เกรเซอร์ รับบท เอ็ดดี้, ไวแอตต์ โอเลฟฟ์ รับบท สแตนลีย์ รวมถึงนักแสดงตัวหลักที่ขาดไม่ได้เลยก็คือ บิล ซาร์สการ์ด ที่กลับมาทวงตำแหน่งตัวตลกปีศาจในตำนาน เพนนี่ไวซ์…!!!

Complete name : [MINI Super-HQ]_It.Chapter.Two.2019.1080p.BrRip.DTS.x264.One2loadup.com.mkv
Format : Matroska
Format version : Version 4
File size : 5.32 GiB
Duration : 2 h 49 min
Overall bit rate : 4 495 kb/s
Movie name : [MINI Super-HQ]_It.Chapter.Two.2019.1080p.BrRip.DTS.x264.One2loadup.com
Encoded date : UTC 2010-02-22 21:41:31
Writing application : mkvmerge v5.9.0 (‘On The Loose’) built on Dec 9 2012 15:37:01
Writing library : libebml v1.3.0 + libmatroska v1.4.0

Video
ID : 1
Format : AVC
Format/Info : Advanced Video Codec
Format profile : [email protected]
Format settings : CABAC / 4 Ref Frames
Format settings, CABAC : Yes
Format settings, ReFrames : 4 frames
Codec ID : V_MPEG4/ISO/AVC
Duration : 2 h 49 min
Bit rate : 3 172 kb/s
Width : 1 920 pixels
Height : 804 pixels
Display aspect ratio : 2.40:1
Frame rate mode : Constant
Frame rate : 23.976 (24000/1001) FPS
Color space : YUV
Chroma subsampling : 4:2:0
Bit depth : 8 bits
Scan type : Progressive
Bits/(Pixel*Frame) : 0.086
Stream size : 3.79 GiB (71%)
Title : [MINI Super-HQ]_It.Chapter.Two.2019.1080p.BrRip.DTS.x264.One2loadup.com
Writing library : x264 core 146 r2538 121396c
Encoding settings : cabac=1 / ref=5 / deblock=1:-3:-3 / analyse=0x3:0x133 / me=tesa / subme=11 / psy=1 / psy_rd=1.00:0.15 / mixed_ref=1 / me_range=48 / chroma_me=1 / trellis=2 / 8x8dct=1 / cqm=0 / deadzone=21,11 / fast_pskip=1 / chroma_qp_offset=-3 / threads=54 / lookahead_threads=4 / sliced_threads=0 / nr=0 / decimate=1 / interlaced=0 / bluray_compat=1 / constrained_intra=0 / bframes=3 / b_pyramid=1 / b_adapt=2 / b_bias=0 / direct=3 / weightb=1 / open_gop=0 / weightp=1 / keyint=250 / keyint_min=1 / scenecut=40 / intra_refresh=0 / rc_lookahead=60 / rc=2pass / mbtree=1 / bitrate=3172 / ratetol=1.0 / qcomp=0.60 / qpmin=0 / qpmax=69 / qpstep=4 / cplxblur=20.0 / qblur=0.5 / ip_ratio=1.40 / aq=1:1.30
Language : English
Default : Yes
Forced : No

Audio #1
ID : 2
Format : AC-3
Format/Info : Audio Coding 3
Commercial name : Dolby Digital
Codec ID : A_AC3
Duration : 2 h 49 min
Bit rate mode : Constant
Bit rate : 448 kb/s
Channel(s) : 6 channels
Channel layout : L R C LFE Ls Rs
Sampling rate : 48.0 kHz
Frame rate : 31.250 FPS (1536 SPF)
Bit depth : 16 bits
Compression mode : Lossy
Stream size : 543 MiB (10%)
Title : Thai BluRay Master
Language : Thai
Service kind : Complete Main
Default : Yes
Forced : Yes

Audio #2
ID : 3
Format : DTS
Format/Info : Digital Theater Systems
Codec ID : A_DTS
Duration : 2 h 49 min
Bit rate mode : Constant
Bit rate : 755 kb/s
Channel(s) : 6 channels
Channel layout : C L R Ls Rs LFE
Sampling rate : 48.0 kHz
Frame rate : 93.750 FPS (512 SPF)
Bit depth : 24 bits
Compression mode : Lossy
Stream size : 914 MiB (17%)
Title : English DTS
Language : English
Default : No
Forced : No

Text #1
ID : 4
Format : VobSub
Codec ID : S_VOBSUB
Codec ID/Info : Picture based subtitle format used on DVDs
Language : Thai
Default : Yes
Forced : Yes

Text #2
ID : 5
Format : VobSub
Codec ID : S_VOBSUB
Codec ID/Info : Picture based subtitle format used on DVDs
Title : Thai 720p
Language : Thai
Default : No
Forced : No

Text #3
ID : 6
Format : VobSub
Codec ID : S_VOBSUB
Codec ID/Info : Picture based subtitle format used on DVDs
Title : Thai 1080p
Language : Thai
Default : No
Forced : No

Text #4
ID : 7
Format : VobSub
Codec ID : S_VOBSUB
Codec ID/Info : Picture based subtitle format used on DVDs
Title : Thai 1080p Yellow
Language : Thai
Default : No
Forced : No

Text #5
ID : 8
Format : VobSub
Codec ID : S_VOBSUB
Codec ID/Info : Picture based subtitle format used on DVDs
Title : Thai 1080p Out
Language : Thai
Default : No
Forced : No

Text #6
ID : 9
Format : VobSub
Codec ID : S_VOBSUB
Codec ID/Info : Picture based subtitle format used on DVDs
Title : Thai 1080p BIG
Language : Thai
Default : No
Forced : No

Text #7
ID : 10
Format : PGS
Codec ID : S_HDMV/PGS
Codec ID/Info : Picture based subtitle format used on BDs/HD-DVDs
Title : Thai PGS BluRay Master
Language : Thai
Default : No
Forced : No

Text #8
ID : 11
Format : PGS
Codec ID : S_HDMV/PGS
Codec ID/Info : Picture based subtitle format used on BDs/HD-DVDs
Title : Thai PGS Out
Language : Thai
Default : No
Forced : No

Text #9
ID : 12
Format : PGS
Codec ID : S_HDMV/PGS
Codec ID/Info : Picture based subtitle format used on BDs/HD-DVDs
Title : English
Language : English
Default : No
Forced : No

DOWNLOAD


PART01 |||| PART02 |||| PART03 |||| PART04 |||| PART05 |||| PART06

PART01 |||| PART02 |||| PART03 |||| PART04 |||| PART05 |||| PART06

PART01 |||| PART02 |||| PART03 |||| PART04 |||| PART05 |||| PART06

PART01 |||| PART02 |||| PART03 |||| PART04 |||| PART05 |||| PART06


Leave A Reply

Your email address will not be published.

%d bloggers like this: