[MINI-HD] Trial by Fire (2019) ไฟอยุติธรรม [1080p] [พากย์ไทย 2.0 + เสียงอังกฤษ 5.1] [บรรยายอังกฤษ] [เสียงไทย + ซับอังกฤษ] [PANDAFILE]

0

โหลดหนัง Trial by Fire (2019) ไฟอยุติธรรม

Trial by Fire (2018) 127min | Biography, Drama | 17 May 2019 (USA) Summary: The tragic and controversial story of Cameron Todd Willingham, who was executed in Texas for killing his three children after scientific evidence and expert testimony that bolstered his claims of innocence were suppressed.
Countries: USALanguages: English

เรื่องย่อ Trial by Fire (2019) ไฟอยุติธรรม

สร้างจากเรื่องจริงของ คาเมรอน ท็อดด์ วิลลิงแฮม (แสดงโดย แจ็ค โอ คอนเนลล์) ชายผู้ถูกตัดสินประหารชีวิตจากเหตุวางเพลิงฆาตกรรมลูกสาวสามคนของเขาเอง เอลิซาเบธ กิลเบิร์ต (แสดงโดย ลอร่า เดิร์น) พยายามโต้แย้งถึงคำตัดสินเธอได้หาหลักฐานทางวิทยาศาสตร์และคำให้การของผู้เชี่ยวชาญเพื่อความยืนยันถึงความบริสุทธิ์ของเขาและหวังว่าจะช่วยชีวิตเขาไว้ได้

Complete name : [MINI-HD]_Trial.by.Fire.2019.1080p.WEBRip.EAC3.x264.THM.One2loadup.com.mkv
Format : Matroska
Format version : Version 4
File size : 3.86 GiB
Duration : 2 h 7 min
Overall bit rate : 4 346 kb/s
Movie name : [MINI-HD]_Trial.by.Fire.2019.1080p.WEBRip.EAC3.x264.THM.One2loadup.com
Encoded date : UTC 2020-11-16 04:29:57
Writing application : mkvmerge v48.0.0 (‘Fortress Around Your Heart’) 64-bit
Writing library : libebml v1.4.0 + libmatroska v1.6.0

Video
ID : 1
Format : AVC
Format/Info : Advanced Video Codec
Format profile : [email protected]
Format settings : CABAC / 4 Ref Frames
Format settings, CABAC : Yes
Format settings, Reference : 4 frames
Codec ID : V_MPEG4/ISO/AVC
Duration : 2 h 7 min
Bit rate : 3 500 kb/s
Width : 1 920 pixels
Height : 1 036 pixels
Display aspect ratio : 1.85:1
Frame rate mode : Constant
Frame rate : 23.976 (24000/1001) FPS
Color space : YUV
Chroma subsampling : 4:2:0
Bit depth : 8 bits
Scan type : Progressive
Bits/(Pixel*Frame) : 0.073
Stream size : 3.06 GiB (79%)
Title : [MINI-HD]_Trial.by.Fire.2019.1080p.WEBRip.EAC3.x264.THM.One2loadup.com
Writing library : x264 core 157 r2935 545de2f
Encoding settings : cabac=1 / ref=1 / deblock=1:0:0 / analyse=0x3:0x113 / me=hex / subme=2 / psy=1 / psy_rd=1.00:0.00 / mixed_ref=0 / me_range=16 / chroma_me=1 / trellis=0 / 8x8dct=1 / cqm=0 / deadzone=21,11 / fast_pskip=1 / chroma_qp_offset=0 / threads=10 / lookahead_threads=3 / sliced_threads=0 / nr=0 / decimate=1 / interlaced=0 / bluray_compat=0 / constrained_intra=0 / bframes=3 / b_pyramid=2 / b_adapt=1 / b_bias=0 / direct=1 / weightb=1 / open_gop=0 / weightp=1 / keyint=240 / keyint_min=24 / scenecut=40 / intra_refresh=0 / rc_lookahead=10 / rc=abr / mbtree=1 / bitrate=3500 / ratetol=1.0 / qcomp=0.60 / qpmin=0 / qpmax=69 / qpstep=4 / ip_ratio=1.40 / aq=1:1.00
Default : Yes
Forced : No
Color range : Limited
Color primaries : BT.709
Transfer characteristics : BT.709
Matrix coefficients : BT.709

Audio #1
ID : 2
Format : E-AC-3
Format/Info : Enhanced AC-3
Commercial name : Dolby Digital Plus
Codec ID : A_EAC3
Duration : 2 h 7 min
Bit rate mode : Constant
Bit rate : 448 kb/s
Channel(s) : 2 channels
Channel layout : L R
Sampling rate : 48.0 kHz
Frame rate : 31.250 FPS (1536 SPF)
Compression mode : Lossy
Delay relative to video : -5 ms
Stream size : 407 MiB (10%)
Language : Thai
Service kind : Complete Main
Default : Yes
Forced : No

Audio #2
ID : 3
Format : E-AC-3
Format/Info : Enhanced AC-3
Commercial name : Dolby Digital Plus
Codec ID : A_EAC3
Duration : 2 h 7 min
Bit rate mode : Constant
Bit rate : 448 kb/s
Channel(s) : 6 channels
Channel layout : L R C LFE Ls Rs
Sampling rate : 48.0 kHz
Frame rate : 31.250 FPS (1536 SPF)
Compression mode : Lossy
Delay relative to video : -5 ms
Stream size : 407 MiB (10%)
Language : English
Service kind : Complete Main
Default : No
Forced : No

Text
ID : 4
Format : UTF-8
Codec ID : S_TEXT/UTF8
Codec ID/Info : UTF-8 Plain Text
Duration : 2 h 3 min
Bit rate : 71 b/s
Count of elements : 2000
Stream size : 64.2 KiB (0%)
Language : English
Default : Yes
Forced : Yes

DOWNLOAD


PART01 |||| PART02 |||| PART03 |||| PART04

PART01 |||| PART02 |||| PART03 |||| PART04

PART01 |||| PART02 |||| PART03 |||| PART04

PART01 |||| PART02 |||| PART03 |||| PART04

PART01 |||| PART02 |||| PART03 |||| PART04


Leave A Reply

Your email address will not be published.

%d bloggers like this: