[MINI-HD] The Three Musketeers (2011) 3 ทหารเสือดาบทะลุจอ [1080p] [พากย์ไทย DTS + เสียงอังกฤษ DTS] [บรรยายไทย + อังกฤษ] [เสียงไทย + ซับไทย] [OPENLOAD]

0

The Three Musketeers (2011) 3 ทหารเสือดาบทะลุจอ

โหลดหนัง The Three Musketeers (2011)

The Three Musketeers (2011) 1h 50min | Action, Adventure, Romance | 21 October 2011 (Canada) Summary: The hot-headed young D'Artagnan along with three former legendary but now down on their luck Musketeers must unite and defeat a beautiful double agent and her villainous employer from seizing the French throne and engulfing Europe in war.
Countries: USA, Germany, France, UKLanguages: English

เรื่องย่อ The Three Musketeers (2011) 3 ทหารเสือดาบทะลุจอ

เมื่อสามทหารเสือ อาโตร์ (แมทธิว แม็กเฟเดียน) , ปอร์โต (เรย์ สตีเวนสัน) และ อารามิส (ลุค อีแวน) ต้องเสื่อมเสียชื่อเสียง เพราะภารกิจล่าสุดถูกหักหลังโดยหญิงแสบ มิลาดี เดอ วินเทอร์ (มิล่า โจโววิช ) สามปีต่อมาหนุ่มน้อย ดาตาญัง ก็มุ่งหน้าสู่ปารีส เพื่อความฝันในการเป็นทหารเสือในขณะเดียวกัน คาร์ดินัล รีเชอลีเยอ ก็ร่วมมือกับ มิลาดี เพื่อล้มราชบัลลังก์ของ คิงหลุยส์ (เฟร็ดดี้ ฟ็อกซ์) ด้วยการกล่าวหา ควีนแอนน์ (จูโน่ เทมเปิ้ล) เจ้าสาวของกษัตริย์ฝรั่งเศส ว่ามีความสัมพันธ์กับดยุคแห่งบัคกิ้งแฮม (ออแลนโด้ บลูม) ที่จะทำให้ชื่อเสียงของราชวงค์ต้องเสื่อมเสีย และกลายเป็นชนวนสงครามระหว่างฝรั่งเศสและอังกฤษเหลือเพียงแต่สามทหารเสือและหนึ่งทหารเสือมือใหม่เท่านั้น ที่สามารถหยุดยั้งแผนการอันชั่วร้ายให้ได้ พวกเขาจะสามารถหยุดยั้ง รีเชอลีเยอ และ มิลาดี ได้หรือไม่ และพวกเขาจะได้กล่าวคำขวัญชื่อดัง “หนึ่งเพื่อหมู่ หมู่เพื่อเอกภาพ!” เพื่อปลุกจิตวิญญาณของทหารเสือราชินีอีกครั้งหรือเปล่า

Complete name : [MINI-HD]_The.Three.Musketeers.3.2011.1080p.BrRip.DTS.x264.One2loadup.com.mkv
Format : Matroska
Format version : Version 4
File size : 5.78 GiB
Duration : 1 h 50 min
Overall bit rate : 7 484 kb/s
Movie name : [MINI-HD]_The.Three.Musketeers.3.2011.1080p.BrRip.DTS.x264.One2loadup.com
Encoded date : UTC 2016-09-29 23:03:09 / UTC 2016-09-29T15:46:32Z
Writing application : mkvmerge v8.3.0 (‘Over the Horizon’) 64bit
Writing library : libebml v1.3.1 + libmatroska v1.4.2 / Lavf55.12.0

Video
ID : 1
Format : AVC
Format/Info : Advanced Video Codec
Format profile : [email protected]
Format settings : CABAC / 4 Ref Frames
Format settings, CABAC : Yes
Format settings, ReFrames : 4 frames
Codec ID : V_MPEG4/ISO/AVC
Duration : 1 h 50 min
Bit rate : 4 317 kb/s
Width : 1 920 pixels
Height : 816 pixels
Display aspect ratio : 2.35:1
Frame rate mode : Constant
Frame rate : 23.976 (24000/1001) FPS
Color space : YUV
Chroma subsampling : 4:2:0
Bit depth : 8 bits
Scan type : Progressive
Bits/(Pixel*Frame) : 0.115
Stream size : 3.33 GiB (58%)
Title : [MINI-HD]_The.Three.Musketeers.3.2011.1080p.BrRip.DTS.x264.One2loadup.com
Writing library : x264 core 142 r2479 dd79a61
Encoding settings : cabac=1 / ref=1 / deblock=1:0:0 / analyse=0x1:0x111 / me=hex / subme=2 / psy=1 / psy_rd=1.00:0.00 / mixed_ref=0 / me_range=16 / chroma_me=1 / trellis=0 / 8x8dct=0 / cqm=0 / deadzone=21,11 / fast_pskip=1 / chroma_qp_offset=0 / threads=6 / lookahead_threads=2 / sliced_threads=0 / nr=0 / decimate=1 / interlaced=0 / bluray_compat=0 / constrained_intra=0 / bframes=3 / b_pyramid=2 / b_adapt=1 / b_bias=0 / direct=1 / weightb=1 / open_gop=0 / weightp=1 / keyint=240 / keyint_min=24 / scenecut=40 / intra_refresh=0 / rc_lookahead=10 / rc=crf / mbtree=1 / crf=20.0 / qcomp=0.60 / qpmin=0 / qpmax=69 / qpstep=4 / vbv_maxrate=20000 / vbv_bufsize=25000 / crf_max=0.0 / nal_hrd=none / filler=0 / ip_ratio=1.40 / aq=1:1.00
Language : Thai
Default : Yes
Forced : Yes
Color range : Limited
Color primaries : BT.709
Transfer characteristics : BT.709
Matrix coefficients : BT.709

Audio #1
ID : 2
Format : DTS
Format/Info : Digital Theater Systems
Codec ID : A_DTS
Duration : 1 h 50 min
Bit rate mode : Constant
Bit rate : 1 509 kb/s
Channel(s) : 6 channels
Channel layout : C L R Ls Rs LFE
Sampling rate : 48.0 kHz
Frame rate : 93.750 FPS (512 SPF)
Bit depth : 16 bits
Compression mode : Lossy
Stream size : 1.17 GiB (20%)
Title : Surround
Language : English
Default : No
Forced : Yes

Audio #2
ID : 3
Format : DTS
Format/Info : Digital Theater Systems
Codec ID : A_DTS
Duration : 1 h 50 min
Bit rate mode : Constant
Bit rate : 1 509 kb/s
Channel(s) : 6 channels
Channel layout : C L R Ls Rs LFE
Sampling rate : 48.0 kHz
Frame rate : 93.750 FPS (512 SPF)
Bit depth : 16 bits
Compression mode : Lossy
Stream size : 1.17 GiB (20%)
Title : Surround
Language : Thai
Default : Yes
Forced : Yes

Text #1
ID : 4
Format : PGS
Muxing mode : zlib
Codec ID : S_HDMV/PGS
Codec ID/Info : Picture based subtitle format used on BDs/HD-DVDs
Language : English
Default : No
Forced : Yes

Text #2
ID : 5
Format : PGS
Muxing mode : zlib
Codec ID : S_HDMV/PGS
Codec ID/Info : Picture based subtitle format used on BDs/HD-DVDs
Language : Thai
Default : Yes
Forced : Yes

Menu
00:00:00.000 : :Chapter 1
00:05:00.067 : :Chapter 2
00:09:59.449 : :Chapter 3
00:14:59.708 : :Chapter 4
00:20:00.049 : :Chapter 5
00:24:59.557 : :Chapter 6
00:29:59.899 : :Chapter 7
00:34:59.656 : :Chapter 8
00:39:59.748 : :Chapter 9
00:45:00.006 : :Chapter 10
00:49:59.472 : :Chapter 11
00:54:59.689 : :Chapter 12
00:59:59.446 : :Chapter 13
01:04:59.579 : :Chapter 14
01:09:59.337 : :Chapter 15
01:14:59.929 : :Chapter 16
01:19:59.353 : :Chapter 17
01:24:59.695 : :Chapter 18
01:29:59.578 : :Chapter 19
01:34:59.628 : :Chapter 20
01:39:59.719 : :Chapter 21
01:44:59.435 : :Chapter 22
01:49:59.777 : :Chapter 23

DOWNLOAD


PART01 |||| PART02 |||| PART03 |||| PART04 |||| PART05 |||| PART06

PART01 |||| PART02 |||| PART03 |||| PART04 |||| PART05 |||| PART06

PART01 |||| PART02 |||| PART03 |||| PART04 |||| PART05 |||| PART06

PART01 |||| PART02 |||| PART03 |||| PART04 |||| PART05 |||| PART06


Leave A Reply

Your email address will not be published.

%d bloggers like this: