[MINI-HD] The Queen (2006) เดอะ ควีน ราชินีหัวใจโลกจารึก [1080p] [พากย์ไทย 5.1 + เสียงอังกฤษ 5.1] [บรรยายไทย + อังกฤษ] [เสียงไทย + ซับไทย] [PANDAFILE]

0

The Queen (2006)

โหลดหนัง The Queen (2006) เดอะ ควีน ราชินีหัวใจโลกจารึก

Die Queen (2006) 1h 43min | Biography, Drama, History | 11 January 2007 (Germany) Summary: After the death of Princess Diana, Queen Elizabeth II struggles with her reaction to a sequence of events nobody could have predicted.
Countries: UK, USA, France, ItalyLanguages: English, German, French

เรื่องย่อ The Queen (2006) เดอะ ควีน ราชินีหัวใจโลกจารึก

เมื่อข่าวการสิ้นพระชนม์ของเจ้าหญิงไดอาน่า ผู้หญิงที่มีชื่อเสียงที่สุดในโลก แพร่กระจายออกไปในหมู่ประชาชนชาวอังกฤษที่ทั้งช็อคแล ะทำใจไม่ได้ สมเด็จพระราชินีเอลิซาเบธที่ 2 และสมาชิกในราชวงศ์ กลับเก็บตัวเงียบอยู่หลังกำแพงปราสาทบัลโมรัล โดยมิได้หยั่งรู้ถึงปฏิกิริยาที่ประชาชนมีต่อเหตุโศก นาฏกรรมครั้งนี้ สำหรับโทนี่ แบลร์ นายกรัฐมนตรีที่เพิ่งได้รับเลือกตั้งและได้รับความนิ ยมอย่างสูง ความต้องการของประชาชนที่ต้องการหลักประกันและกำลังใ จจากผู้นำของพวกเขาเป็นสิ่งที่เห็นได้ชัดเมื่อการไหลหลั่งของอารมณ์ทวีสูงขึ้นอย่างไม่เคยเป็น มาก่อน แบร์ต้องหาทางที่จะเชื่อมโยงสมเด็จพระราชินีกับประชา ชนชาวอังกฤษอีกครั้ง!!!

Complete name : [MINI-HD]_The.Queen.2006.1080p.BrRip.AC3.x264.One2loadup.com.mkv
Format : Matroska
Format version : Version 4
File size : 2.15 GiB
Duration : 1 h 43 min
Overall bit rate : 2 980 kb/s
Movie name : [MINI-HD]_The.Queen.2006.1080p.BrRip.AC3.x264.One2loadup.com
Encoded date : UTC 2017-11-22 13:45:54
Writing application : mkvmerge v18.0.0 (‘Apricity’) 64-bit
Writing library : libebml v1.3.5 + libmatroska v1.4.8

Video
ID : 1
Format : AVC
Format/Info : Advanced Video Codec
Format profile : [email protected]
Format settings : CABAC / 4 Ref Frames
Format settings, CABAC : Yes
Format settings, ReFrames : 4 frames
Codec ID : V_MPEG4/ISO/AVC
Duration : 1 h 43 min
Bit rate : 2 500 kb/s
Width : 1 920 pixels
Height : 1 040 pixels
Display aspect ratio : 1.85:1
Frame rate mode : Constant
Frame rate : 23.976 (24000/1001) FPS
Original frame rate : 23.976 (23976/1000) FPS
Color space : YUV
Chroma subsampling : 4:2:0
Bit depth : 8 bits
Scan type : Progressive
Bits/(Pixel*Frame) : 0.052
Stream size : 1.80 GiB (84%)
Title : [MINI-HD]_The.Queen.2006.1080p.BrRip.AC3.x264.One2loadup.com
Writing library : x264 core 152 r2851M ba24899
Encoding settings : cabac=1 / ref=4 / deblock=1:-1:-1 / analyse=0x3:0x113 / me=umh / subme=9 / psy=1 / psy_rd=1.00:0.15 / mixed_ref=1 / me_range=24 / chroma_me=1 / trellis=2 / 8x8dct=1 / cqm=0 / deadzone=21,11 / fast_pskip=1 / chroma_qp_offset=-3 / threads=32 / lookahead_threads=4 / sliced_threads=0 / nr=0 / decimate=1 / interlaced=0 / bluray_compat=0 / constrained_intra=0 / bframes=3 / b_pyramid=2 / b_adapt=2 / b_bias=0 / direct=3 / weightb=1 / open_gop=0 / weightp=2 / keyint=250 / keyint_min=25 / scenecut=40 / intra_refresh=0 / rc_lookahead=50 / rc=2pass / mbtree=1 / bitrate=2500 / ratetol=1.0 / qcomp=0.60 / qpmin=0 / qpmax=69 / qpstep=4 / cplxblur=20.0 / qblur=0.5 / vbv_maxrate=31250 / vbv_bufsize=31250 / nal_hrd=none / filler=0 / ip_ratio=1.40 / aq=3:1.00
Default : Yes
Forced : No

Audio #1
ID : 2
Format : AC-3
Format/Info : Audio Coding 3
Commercial name : Dolby Digital
Codec ID : A_AC3
Duration : 1 h 43 min
Bit rate mode : Constant
Bit rate : 224 kb/s
Channel(s) : 6 channels
Channel layout : L R C LFE Ls Rs
Sampling rate : 48.0 kHz
Frame rate : 31.250 FPS (1536 SPF)
Bit depth : 16 bits
Compression mode : Lossy
Delay relative to video : 15 s 0 ms
Stream size : 165 MiB (7%)
Language : English
Service kind : Complete Main
Default : Yes
Forced : No

Audio #2
ID : 3
Format : AC-3
Format/Info : Audio Coding 3
Commercial name : Dolby Digital
Codec ID : A_AC3
Duration : 1 h 43 min
Bit rate mode : Constant
Bit rate : 224 kb/s
Channel(s) : 6 channels
Channel layout : L R C LFE Ls Rs
Sampling rate : 48.0 kHz
Frame rate : 31.250 FPS (1536 SPF)
Bit depth : 16 bits
Compression mode : Lossy
Delay relative to video : 15 s 0 ms
Stream size : 165 MiB (7%)
Language : Thai
Service kind : Complete Main
Default : No
Forced : No

Text #1
ID : 4
Format : UTF-8
Codec ID : S_TEXT/UTF8
Codec ID/Info : UTF-8 Plain Text
Duration : 1 h 36 min
Bit rate : 64 b/s
Count of elements : 1108
Stream size : 45.7 KiB (0%)
Language : English
Default : Yes
Forced : No

Text #2
ID : 5
Format : VobSub
Muxing mode : zlib
Codec ID : S_VOBSUB
Codec ID/Info : Picture based subtitle format used on DVDs
Duration : 1 h 36 min
Bit rate : 12.6 kb/s
Count of elements : 1474
Stream size : 8.72 MiB (0%)
Title : 1080p
Language : Thai
Default : No
Forced : No

Text #3
ID : 6
Format : PGS
Muxing mode : zlib
Codec ID : S_HDMV/PGS
Codec ID/Info : Picture based subtitle format used on BDs/HD-DVDs
Duration : 1 h 36 min
Bit rate : 51.8 kb/s
Count of elements : 2950
Stream size : 35.8 MiB (2%)
Title : PGS 1080p
Language : Thai
Default : No
Forced : No

Text #4
ID : 7
Format : UTF-8
Codec ID : S_TEXT/UTF8
Codec ID/Info : UTF-8 Plain Text
Duration : 1 h 36 min
Bit rate : 183 b/s
Count of elements : 1475
Stream size : 130 KiB (0%)
Language : Thai
Default : No
Forced : No

DOWNLOAD


PART01 |||| PART02 |||| PART03

PART01 |||| PART02 |||| PART03

PART01 |||| PART02 |||| PART03

PART01 |||| PART02 |||| PART03


Leave A Reply

Your email address will not be published.

%d bloggers like this: