[MINI-HD] The Lion King (2019) เดอะ ไลอ้อน คิง [1080p] [พากย์ไทย 2.0 + เสียงอังกฤษ DTS] [บรรยายไทย + อังกฤษ] [เสียงไทยมาสเตอร์ + ซับไทย] [OPENLOAD]

1

The Lion King (2019)

โหลดหนัง The Lion King (2019) เดอะ ไลอ้อน คิง

The Lion King (2019) 1h 58min | Animation, Adventure, Drama | 17 July 2019 (Netherlands) Summary: After the murder of his father, a young lion prince flees his kingdom only to learn the true meaning of responsibility and bravery.
Countries: USALanguages: English

เรื่องย่อ The Lion King (2019) เดอะ ไลอ้อน คิง

เรื่องราวของสิงโตแห่งผาทรนง เมื่อเจ้าป่ามูฟาซ่าถูกฆ่าตาย และสการ์น้องชายผู้ริษยาโยนความผิดนี้ให้กับซิมบ้า ลูกชายของมูฟาซ่า ทำให้ซิมบ้าต้องหนีอดีตอันแสนเจ็บปวดและยึดถือคติการ ดำรงชีวิตใหม่คือ “ฮากูน่า มาทาท่า” เรื่องราวของการผจญภัย โชคชะตา และความรัก สร้างจากแอนิเมชั่นที่ประสบความสำเร็จกวาดรายได้ มากถึง 968 ล้านดอลล่าร์สหรัฐฯ

” ซิมบ้า “ เกิดมาเพื่อเป็นราชาอย่างแท้จริง วันที่ซิมบ้าถือกำเนิด เหล่าฝูงสัตว์แซ่ซร้อง โห่ร้องลั่นป่าด้วยความยินดี ซิมบ้าถูกเลี้ยงแบบธรรมดาเหมือนสิงโตตัวน้อยๆซุกซนไปตามธรรมชาติ และพ่อของซิมบ้าห้ามเด็ดขาดไม่ให้ไปป่าต้องห้าม แต่ซิมบ้าซนถึงขนาดจะเอาชีวิตไม่รอดจากฝูงไฮยีน่าในป่าต้องห้ามนั้น เมื่อเติบโตขึ้นจึงเข้าใจชีวิตมากขึ้น ซิมบ้าถูก ” มูฟาซ่า “ พ่อของเขาสอนให้เข้าใจสัจธรรม และธรรมของเจ้าป่า ต้องเข้าใจและรักษาสมดุลของชีวิตสัตว์นักล่าทั้งหลายในป่านี้ไว้

” สการ์ “ อาของซิมบ้า เจ้านี่มันร้ายอย่างมากเพราะวางแผนฆ่ามูฟาซ่าและโยนความผิดให้ซิมบ้า โดยการคิดแผนร้ายกับฝูงไฮยี่น่าสัตว์ที่เป็นที่รังเกียจของสังคมสัตว์ในอาณาจักรสิงโต เพราะไอเจ้าฝูงไฮยีน่านี้ไปถึงไหน ความวอดวายบรรลัยเกิดขึ้นที่นั่น สิ่งที่สการ์ต้องการคือ ตำแหน่ง “เจ้าป่า” โดยไม่เคยสนใจว่าจะสร้างความเสียหายให้กับสังคมเท่าไหร่ ขออย่างเดียวให้ตนเองได้เป็นเจาป่าอยู่ท่ามกลางตำแหน่งใหญ่โต หลังจากสการ์ขึ้นครองอำนาจ สมดุลแห่งห่วงโซ่เปลี่ยนแปลง ฝูงสัตว์เริ่มอพยพหนีออกจากอาณาจักร เพราะรู้สึกไม่มั่นคงในชีวิตอีกต่อไปสังคมจากความอุดมสมบูรณ์ก็กลายเป็นความแห้งแล้งกันดาร ซิมบ้าจะทำยังไง จะทวงตำแหน่งราชาคืนมาได้หรือไม่ โปรดติดตาม…!!!

Complete name : [MINI-HD]_The.Lion.King.2019.1080p.BluRay.DTS.x264.One2loadup.com.mkv
Format : Matroska
Format version : Version 4
File size : 4.42 GiB
Duration : 1 h 58 min
Overall bit rate : 5 354 kb/s
Movie name : [MINI-HD]_The.Lion.King.2019.1080p.BluRay.DTS.x264.One2loadup.com
Encoded date : UTC 2019-10-22 04:03:51
Writing application : mkvmerge v38.0.0 (‘The Silent Type’) 64-bit
Writing library : libebml v1.3.9 + libmatroska v1.5.2
Cover : Yes
Attachments : small_cover.jpg / small_cover_land.jpg / cover.jpg / cover_land.jpg

Video
ID : 1
Format : AVC
Format/Info : Advanced Video Codec
Format profile : [email protected]
Format settings : CABAC / 4 Ref Frames
Format settings, CABAC : Yes
Format settings, ReFrames : 4 frames
Codec ID : V_MPEG4/ISO/AVC
Duration : 1 h 58 min
Bit rate : 4 332 kb/s
Width : 1 920 pixels
Height : 1 080 pixels
Display aspect ratio : 16:9
Frame rate mode : Constant
Frame rate : 23.976 (24000/1001) FPS
Color space : YUV
Chroma subsampling : 4:2:0
Bit depth : 8 bits
Scan type : Progressive
Bits/(Pixel*Frame) : 0.087
Stream size : 3.58 GiB (81%)
Title : [MINI-HD]_The.Lion.King.2019.1080p.BluRay.DTS.x264.One2loadup.com
Writing library : x264 core 157 r2969 d4099dd
Encoding settings : cabac=1 / ref=4 / deblock=1:-1:-1 / analyse=0x3:0x133 / me=umh / subme=9 / psy=1 / psy_rd=1.00:0.15 / mixed_ref=1 / me_range=24 / chroma_me=1 / trellis=2 / 8x8dct=1 / cqm=0 / deadzone=21,11 / fast_pskip=0 / chroma_qp_offset=-3 / threads=12 / lookahead_threads=1 / sliced_threads=0 / nr=200 / decimate=1 / interlaced=0 / bluray_compat=0 / constrained_intra=0 / bframes=3 / b_pyramid=2 / b_adapt=2 / b_bias=0 / direct=3 / weightb=1 / open_gop=0 / weightp=2 / keyint=250 / keyint_min=23 / scenecut=40 / intra_refresh=0 / rc_lookahead=60 / rc=2pass / mbtree=1 / bitrate=4332 / ratetol=1.0 / qcomp=0.60 / qpmin=0 / qpmax=69 / qpstep=4 / cplxblur=20.0 / qblur=0.5 / ip_ratio=1.40 / aq=1:1.00
Language : English
Default : Yes
Forced : No
Color range : Limited
Color primaries : BT.709
Transfer characteristics : BT.709
Matrix coefficients : BT.709

Audio #1
ID : 2
Format : AAC LC
Format/Info : Advanced Audio Codec Low Complexity
Codec ID : A_AAC-2
Duration : 1 h 58 min
Bit rate : 160 kb/s
Channel(s) : 2 channels
Channel layout : L R
Sampling rate : 48.0 kHz
Frame rate : 46.875 FPS (1024 SPF)
Compression mode : Lossy
Delay relative to video : 660 ms
Stream size : 135 MiB (3%)
Title : Thai Master From iTunes
Language : Thai
Default : Yes
Forced : Yes

Audio #2
ID : 3
Format : DTS
Format/Info : Digital Theater Systems
Codec ID : A_DTS
Duration : 1 h 58 min
Bit rate mode : Constant
Bit rate : 768 kb/s
Channel(s) : 6 channels
Channel layout : C L R Ls Rs LFE
Sampling rate : 48.0 kHz
Frame rate : 93.750 FPS (512 SPF)
Bit depth : 24 bits
Compression mode : Lossy
Stream size : 650 MiB (14%)
Title : English DTS
Language : English
Default : No
Forced : No

Text #1
ID : 4
Format : UTF-8
Codec ID : S_TEXT/UTF8
Codec ID/Info : UTF-8 Plain Text
Duration : 1 h 55 min
Bit rate : 105 b/s
Count of elements : 1358
Stream size : 89.1 KiB (0%)
Title : Thai SRT
Language : Thai
Default : Yes
Forced : No

Text #2
ID : 5
Format : VobSub
Muxing mode : zlib
Codec ID : S_VOBSUB
Codec ID/Info : Picture based subtitle format used on DVDs
Duration : 1 h 55 min
Bit rate : 10.4 kb/s
Count of elements : 1358
Stream size : 8.59 MiB (0%)
Title : Thai 1080p
Language : Thai
Default : No
Forced : No

Text #3
ID : 6
Format : VobSub
Muxing mode : zlib
Codec ID : S_VOBSUB
Codec ID/Info : Picture based subtitle format used on DVDs
Duration : 1 h 55 min
Bit rate : 10.4 kb/s
Count of elements : 1358
Stream size : 8.60 MiB (0%)
Title : Thai 1080p Yellow
Language : Thai
Default : No
Forced : No

Text #4
ID : 7
Format : VobSub
Muxing mode : zlib
Codec ID : S_VOBSUB
Codec ID/Info : Picture based subtitle format used on DVDs
Duration : 1 h 55 min
Bit rate : 12.4 kb/s
Count of elements : 1358
Stream size : 10.2 MiB (0%)
Title : Thai 1080p [BIG]
Language : Thai
Default : No
Forced : No

Text #5
ID : 8
Format : PGS
Muxing mode : zlib
Codec ID : S_HDMV/PGS
Codec ID/Info : Picture based subtitle format used on BDs/HD-DVDs
Duration : 1 h 55 min
Bit rate : 44.4 kb/s
Count of elements : 2716
Stream size : 36.8 MiB (1%)
Title : Thai PGS
Language : Thai
Default : No
Forced : No

Text #6
ID : 9
Format : PGS
Muxing mode : zlib
Codec ID : S_HDMV/PGS
Codec ID/Info : Picture based subtitle format used on BDs/HD-DVDs
Duration : 1 h 55 min
Bit rate : 44.4 kb/s
Count of elements : 2716
Stream size : 36.8 MiB (1%)
Title : Thai PGS Yellow
Language : Thai
Default : No
Forced : No

Text #7
ID : 10
Format : PGS
Muxing mode : zlib
Codec ID : S_HDMV/PGS
Codec ID/Info : Picture based subtitle format used on BDs/HD-DVDs
Duration : 1 h 55 min
Bit rate : 55.0 kb/s
Count of elements : 2716
Stream size : 45.5 MiB (1%)
Title : Thai PGS [BIG]
Language : Thai
Default : No
Forced : No

Text #8
ID : 11
Format : PGS
Muxing mode : zlib
Codec ID : S_HDMV/PGS
Codec ID/Info : Picture based subtitle format used on BDs/HD-DVDs
Duration : 1 h 52 min
Bit rate : 37.3 kb/s
Count of elements : 3420
Stream size : 29.8 MiB (1%)
Title : English-PGS
Language : English
Default : No
Forced : No

Menu
00:00:00.000 : en:Chapter 01
00:04:50.498 : en:Chapter 02
00:10:51.067 : en:Chapter 03
00:17:47.691 : en:Chapter 04
00:23:53.014 : en:Chapter 05
00:30:00.131 : en:Chapter 06
00:33:05.066 : en:Chapter 07
00:37:09.310 : en:Chapter 08
00:43:42.911 : en:Chapter 09
00:50:47.335 : en:Chapter 10
00:55:02.716 : en:Chapter 11
00:59:48.459 : en:Chapter 12
01:06:27.233 : en:Chapter 13
01:14:32.092 : en:Chapter 14
01:18:26.410 : en:Chapter 15
01:23:07.899 : en:Chapter 16
01:28:04.654 : en:Chapter 17
01:33:10.876 : en:Chapter 18
01:37:13.744 : en:Chapter 19
01:44:39.189 : en:Chapter 20
01:47:47.335 : en:Chapter 21

DOWNLOAD


PART01 |||| PART02 |||| PART03 |||| PART04 |||| PART05

PART01 |||| PART02 |||| PART03 |||| PART04 |||| PART05

PART01 |||| PART02 |||| PART03 |||| PART04 |||| PART05

PART01 |||| PART02 |||| PART03 |||| PART04 |||| PART05


1 Comment
  1. noknoi says

    ขอบคุณค่ะ

Leave A Reply

Your email address will not be published.

%d bloggers like this: