[MINI-HD] Superman The Movie (1978) ซูเปอร์แมน ภาค 1 [Expanded Edition] [1080p] [พากย์ไทย 5.1 + เสียงอังกฤษ DTS] [บรรยายไทย + อังกฤษ] [เสียงไทย + ซับไทย] [DOSYAUPLOAD]

0

โหลดหนัง Superman The Movie (1978) ซูเปอร์แมน

Superman (1978) 143min | Action, Adventure, Drama | 15 December 1978 (USA) Summary: An alien orphan is sent from his dying planet to Earth, where he grows up to become his adoptive home's first and greatest superhero.
Countries: USA, UK, Canada, Switzerland, FranceLanguages: English

เรื่องย่อ Superman The Movie (1978) ซูเปอร์แมน

หนังเล่าเรื่องของคลาร์ค เคนท์ (รับบทโดย Christopher Reeve) หนุ่มน้อยจากดาวคริปตอน ที่มีพละกำลังมหาศาลในยามปกติเขาจะเป็นเพียงนักข่าวจอมปอดคนหนึ่งแต่เมื่อใดมีภัยเขาจะกลายเป็นซูเปอร์แมน ในครั้งนี้เขาต้องเจอกับ เล็กซ์ ลูธอร์ (รับบทโดย Gene Hackman) อาชญากรจอมอัจฉริยะที่หวังจะเล่นงานโลกทั้งใบ และเขายังต้องเจอกับ ลอยส์ เลน (รับบทโดย Margot Kidder) นักข่าวสาวจอมลุยอีกด้วย (ซึ่งในเวลาต่อมาทั้งคู่ก็รักกัน ตามฟอร์ม)

Complete name : [MINI-HD]_Superman.The.Movie.1978.Expanded.Edition.1080p.BluRay.DTS.x264.One2loadup.com.mkv
Format : Matroska
Format version : Version 4
File size : 5.25 GiB
Duration : 2 h 31 min
Overall bit rate mode : Variable
Overall bit rate : 4 963 kb/s
Movie name : [MINI-HD]_Superman.The.Movie.1978.Expanded.Edition.1080p.BluRay.DTS.x264.One2loadup.com
Encoded date : UTC 2013-08-28 11:52:47
Writing application : mkvmerge v6.3.0 (‘You can’t stop me!’) built on Jun 28 2013 20:09:41
Writing library : libebml v1.3.0 + libmatroska v1.4.0

Video
ID : 1
Format : AVC
Format/Info : Advanced Video Codec
Format profile : [email protected]
Format settings : CABAC / 3 Ref Frames
Format settings, CABAC : Yes
Format settings, Reference : 3 frames
Codec ID : V_MPEG4/ISO/AVC
Duration : 2 h 31 min
Bit rate mode : Variable
Bit rate : 3 000 kb/s
Maximum bit rate : 62.5 Mb/s
Width : 1 920 pixels
Height : 800 pixels
Display aspect ratio : 2.40:1
Frame rate mode : Constant
Frame rate : 23.976 (24000/1001) FPS
Color space : YUV
Chroma subsampling : 4:2:0
Bit depth : 8 bits
Scan type : Progressive
Bits/(Pixel*Frame) : 0.081
Stream size : 3.14 GiB (60%)
Title : [MINI-HD]_Superman.The.Movie.1978.Expanded.Edition.1080p.BluRay.DTS.x264.One2loadup.com
Writing library : x264 core 114 r1924 08d04a4
Encoding settings : cabac=1 / ref=3 / deblock=1:0:0 / analyse=0x3:0x133 / me=umh / subme=7 / psy=1 / psy_rd=1.00:0.00 / mixed_ref=1 / me_range=16 / chroma_me=1 / trellis=1 / 8x8dct=1 / cqm=0 / deadzone=21,11 / fast_pskip=1 / chroma_qp_offset=-2 / threads=3 / sliced_threads=0 / nr=0 / decimate=1 / interlaced=0 / constrained_intra=0 / bframes=3 / b_pyramid=0 / b_adapt=1 / b_bias=0 / direct=1 / weightb=1 / open_gop=0 / weightp=2 / keyint=240 / keyint_min=24 / scenecut=40 / intra_refresh=0 / rc_lookahead=40 / rc=2pass / mbtree=1 / bitrate=3000 / ratetol=1.0 / qcomp=0.60 / qpmin=0 / qpmax=69 / qpstep=4 / cplxblur=20.0 / qblur=0.5 / vbv_maxrate=62500 / vbv_bufsize=62500 / nal_hrd=vbr / ip_ratio=1.40 / aq=1:1.00
Language : English
Default : Yes
Forced : No

Audio #1
ID : 2
Format : AC-3
Format/Info : Audio Coding 3
Commercial name : Dolby Digital
Codec ID : A_AC3
Duration : 2 h 31 min
Bit rate mode : Constant
Bit rate : 384 kb/s
Channel(s) : 6 channels
Channel layout : L R C LFE Ls Rs
Sampling rate : 48.0 kHz
Frame rate : 31.250 FPS (1536 SPF)
Compression mode : Lossy
Stream size : 416 MiB (8%)
Title : Thai AC-3 5.1 at 384 Kbps DVD Master
Language : Thai
Service kind : Complete Main
Default : Yes
Forced : No

Audio #2
ID : 3
Format : DTS
Format/Info : Digital Theater Systems
Codec ID : A_DTS
Duration : 2 h 31 min
Bit rate mode : Constant
Bit rate : 1 509 kb/s
Channel(s) : 6 channels
Channel layout : C L R Ls Rs LFE
Sampling rate : 48.0 kHz
Frame rate : 93.750 FPS (512 SPF)
Bit depth : 24 bits
Compression mode : Lossy
Stream size : 1.60 GiB (30%)
Title : English DTS 5.1 at 1 509 Kbps
Language : English
Default : No
Forced : No

Text #1
ID : 4
Format : VobSub
Muxing mode : zlib
Codec ID : S_VOBSUB
Codec ID/Info : Picture based subtitle format used on DVDs
Title : Thai 480p Angsana
Language : Thai
Default : No
Forced : No

Text #2
ID : 5
Format : VobSub
Muxing mode : zlib
Codec ID : S_VOBSUB
Codec ID/Info : Picture based subtitle format used on DVDs
Title : Thai 1080p Angsana
Language : Thai
Default : Yes
Forced : No

Text #3
ID : 6
Format : VobSub
Muxing mode : zlib
Codec ID : S_VOBSUB
Codec ID/Info : Picture based subtitle format used on DVDs
Title : Thai 1080p TH Sarabun
Language : Thai
Default : No
Forced : No

Text #4
ID : 7
Format : VobSub
Muxing mode : zlib
Codec ID : S_VOBSUB
Codec ID/Info : Picture based subtitle format used on DVDs
Title : Thai 1080p Yellow
Language : Thai
Default : No
Forced : No

Text #5
ID : 8
Format : PGS
Muxing mode : zlib
Codec ID : S_HDMV/PGS
Codec ID/Info : Picture based subtitle format used on BDs/HD-DVDs
Title : Thai PGS Angsana
Language : Thai
Default : No
Forced : No

Text #6
ID : 9
Format : PGS
Muxing mode : zlib
Codec ID : S_HDMV/PGS
Codec ID/Info : Picture based subtitle format used on BDs/HD-DVDs
Title : Thai PGS TH Sarabun
Language : Thai
Default : No
Forced : No

Text #7
ID : 10
Format : PGS
Muxing mode : zlib
Codec ID : S_HDMV/PGS
Codec ID/Info : Picture based subtitle format used on BDs/HD-DVDs
Title : Thai PGS Yellow
Language : Thai
Default : No
Forced : No

Text #8
ID : 11
Format : VobSub
Muxing mode : zlib
Codec ID : S_VOBSUB
Codec ID/Info : Picture based subtitle format used on DVDs
Title : English 1080p
Language : English
Default : No
Forced : No

Text #9
ID : 12
Format : PGS
Muxing mode : zlib
Codec ID : S_HDMV/PGS
Codec ID/Info : Picture based subtitle format used on BDs/HD-DVDs
Title : English PGS
Language : English
Default : No
Forced : No

Text #10
ID : 13
Format : UTF-8
Codec ID : S_TEXT/UTF8
Codec ID/Info : UTF-8 Plain Text
Title : English SRT
Language : English
Default : No
Forced : No

Menu
00:00:00.000 : en:00:00:00.000
00:05:17.943 : en:00:05:17.943
00:09:38.203 : en:00:09:38.203
00:11:17.927 : en:00:11:17.927
00:14:37.001 : en:00:14:37.001
00:19:07.980 : en:00:19:07.980
00:21:32.625 : en:00:21:32.625
00:22:49.410 : en:00:22:49.410
00:24:49.238 : en:00:24:49.238
00:27:44.621 : en:00:27:44.621
00:30:54.728 : en:00:30:54.728
00:35:50.148 : en:00:35:50.148
00:41:24.941 : en:00:41:24.941
00:45:00.448 : en:00:45:00.448
00:50:19.016 : en:00:50:19.016
00:54:52.706 : en:00:54:52.706
00:58:06.108 : en:00:58:06.108
01:02:38.088 : en:01:02:38.088
01:05:24.796 : en:01:05:24.796
01:07:31.089 : en:01:07:31.089
01:10:39.735 : en:01:10:39.735
01:13:23.399 : en:01:13:23.399
01:18:12.813 : en:01:18:12.813
01:19:53.247 : en:01:19:53.247
01:22:14.763 : en:01:22:14.763
01:25:51.605 : en:01:25:51.605
01:30:47.525 : en:01:30:47.525
01:33:49.916 : en:01:33:49.916
01:37:18.916 : en:01:37:18.916
01:39:30.173 : en:01:39:30.173
01:43:08.974 : en:01:43:08.974
01:46:34.263 : en:01:46:34.263
01:47:56.470 : en:01:47:56.470
01:51:52.998 : en:01:51:52.998
01:54:48.381 : en:01:54:48.381
01:58:21.678 : en:01:58:21.678
02:02:24.546 : en:02:02:24.546
02:05:35.820 : en:02:05:35.820
02:09:55.454 : en:02:09:55.454
02:12:21.183 : en:02:12:21.183
02:15:27.161 : en:02:15:27.161
02:18:46.068 : en:02:18:46.068
02:22:28.415 : en:02:22:28.415
02:23:48.119 : en:02:23:48.119

DOWNLOAD


PART01 |||| PART02 |||| PART03 |||| PART04 |||| PART05 |||| PART06

PART01 |||| PART02 |||| PART03 |||| PART04 |||| PART05 |||| PART06

PART01 |||| PART02 |||| PART03 |||| PART04 |||| PART05 |||| PART06

PART01 |||| PART02 |||| PART03 |||| PART04 |||| PART05 |||| PART06

PART01 |||| PART02 |||| PART03 |||| PART04 |||| PART05 |||| PART06


Leave A Reply

Your email address will not be published.

%d bloggers like this: