[MINI-HD] Stowaway (2021) ภารกิจสู่ดาวอังคาร [1080p] [พากย์ไทย 2.0 + เสียงอังกฤษ 5.1] [บรรยายไทย + อังกฤษ] [เสียงไทย + ซับไทย] [USERLOAD]

0

โหลดหนัง Stowaway (2021) ภารกิจสู่ดาวอังคาร

Stowaway 116min | Drama, Sci-Fi, Thriller | April 22, 2021 (United States) Summary: A three-person crew on a mission to Mars faces an impossible choice when an unplanned passenger jeopardizes the lives of everyone on board.
Countries: Germany, United StatesLanguages: English

เรื่องย่อ Stowaway (2021) ภารกิจสู่ดาวอังคาร

หนังใหม่ระทึกขวัญแนววิทยาศาสตร์ทำการทดลองความเป็นไปได้ของสิ่งมีชีวิตบนดาวอังคารเล่าเรื่องราวการเอาชีวิตรอดของทีมงานทดลองในอวกาศและภารกิจบนดาวเคราะห์แดงที่มีกำหนดเวลาสองปีความจริงแล้วน่าจะมีตัวละครแค่ 3 ตัว ได้แก่ผู้บัญชาการเรือ นักวิจัยการแพทย์และผู้เชี่ยวชาญระบบหายใจซึ่งพวกเขาได้รับการคัดเลือกอย่างพิถีพิถันจากผู้สมัครหลายพันคนและผ่านการฝึกอบรมอย่างละเอียดเข้มงวดแต่ทีมงานทดลองกลับพบว่าบนยานอวกาศมีคนเพิ่มอีก 1 คน เป็นชายที่ซ่อนตัวหมดสติและเลือดออกอยู่ในยานการมีลูกเรือคนที่ 4 เพิ่มขึ้นโดยไม่ได้วางแผนและเตรียมการณ์ไว้ก่อนถือได้ว่าเป็นสถานการณ์อันเลวร้ายมากบนยานมีออกซิเจนเพียงพอสำหรับ 3 คน แต่การปรับเปลี่ยนในวินาทีสุดท้ายทำให้แทบไม่พอใช้สำหรับ 3 คนลูกเรือทั้ง 4 อยู่ห่างจากโลกกว่า 1,600,000 กิโลเมตร ความอยู่รอดต้องมาพร้อมกับการเสียสละของทุกคนพวกเขาร่วมจัดการกับเหตุฉุกเฉินต่าง ๆ รวมทั้งการไม่มีออกซิเจนเพียงพอที่จะดำรงชีวิตอยู่ตล อดการเดินทางความผิดหวัง ความปวดร้าว และความกลัว ที่ลูกเรือทั้งสี่ต้องเผชิญเป็นปัญหาอันใหญ่หลวงและแก้ไขได้ยาก

Complete name : [MINI-HD]_Stowaway.2021.1080p.AMZN.WEB-DL.EAC3.x264.THM.One2loadup.com.mkv
Format : Matroska
Format version : Version 4
File size : 4.81 GiB
Duration : 1 h 56 min
Overall bit rate : 5 931 kb/s
Movie name : [MINI-HD]_Stowaway.2021.1080p.AMZN.WEB-DL.EAC3.x264.THM.One2loadup.com
Encoded date : UTC 2021-08-26 03:26:43
Writing application : mkvmerge v60.0.0 (‘Are We Copies?’) 64-bit
Writing library : libebml v1.4.2 + libmatroska v1.6.4

Video
ID : 1
Format : AVC
Format/Info : Advanced Video Codec
Format profile : [email protected]
Format settings : CABAC / 4 Ref Frames
Format settings, CABAC : Yes
Format settings, Reference : 4 frames
Codec ID : V_MPEG4/ISO/AVC
Duration : 1 h 56 min
Bit rate mode : Constant
Bit rate : 5 156 kb/s
Nominal bit rate : 10 000 kb/s
Width : 1 920 pixels
Height : 816 pixels
Display aspect ratio : 2.35:1
Frame rate mode : Constant
Frame rate : 23.976 (24000/1001) FPS
Color space : YUV
Chroma subsampling : 4:2:0
Bit depth : 8 bits
Scan type : Progressive
Bits/(Pixel*Frame) : 0.137
Stream size : 4.18 GiB (87%)
Title : [MINI-HD]_Stowaway.2021.1080p.AMZN.WEB-DL.EAC3.x264.THM.One2loadup.com
Default : Yes
Forced : No
Color range : Limited
Color primaries : BT.709
Transfer characteristics : BT.709
Matrix coefficients : BT.709

Audio #1
ID : 2
Format : E-AC-3
Format/Info : Enhanced AC-3
Commercial name : Dolby Digital Plus
Codec ID : A_EAC3
Duration : 1 h 56 min
Bit rate mode : Constant
Bit rate : 640 kb/s
Channel(s) : 6 channels
Channel layout : L R C LFE Ls Rs
Sampling rate : 48.0 kHz
Frame rate : 31.250 FPS (1536 SPF)
Compression mode : Lossy
Stream size : 532 MiB (11%)
Title : English
Language : English
Service kind : Complete Main
Default : No
Forced : No

Audio #2
ID : 3
Format : AAC LC
Format/Info : Advanced Audio Codec Low Complexity
Codec ID : A_AAC-2
Duration : 1 h 54 min
Bit rate : 132 kb/s
Channel(s) : 2 channels
Channel layout : L R
Sampling rate : 48.0 kHz
Frame rate : 46.875 FPS (1024 SPF)
Compression mode : Lossy
Stream size : 109 MiB (2%)
Language : Thai
Default : Yes
Forced : No

Text #1
ID : 4
Format : UTF-8
Codec ID : S_TEXT/UTF8
Codec ID/Info : UTF-8 Plain Text
Duration : 1 h 46 min
Bit rate : 43 b/s
Count of elements : 1172
Stream size : 33.9 KiB (0%)
Title : English [SDH]
Language : English
Default : No
Forced : No

Text #2
ID : 5
Format : UTF-8
Codec ID : S_TEXT/UTF8
Codec ID/Info : UTF-8 Plain Text
Duration : 1 h 46 min
Bit rate : 40 b/s
Count of elements : 1115
Stream size : 31.9 KiB (0%)
Title : English
Language : English
Default : No
Forced : No

Text #3
ID : 6
Format : UTF-8
Codec ID : S_TEXT/UTF8
Codec ID/Info : UTF-8 Plain Text
Duration : 1 h 46 min
Bit rate : 102 b/s
Count of elements : 1108
Stream size : 80.3 KiB (0%)
Title : Thai
Language : Thai
Default : Yes
Forced : No

Text #4
ID : 7
Format : UTF-8
Codec ID : S_TEXT/UTF8
Codec ID/Info : UTF-8 Plain Text
Duration : 1 h 46 min
Bit rate : 43 b/s
Count of elements : 1172
Stream size : 33.9 KiB (0%)
Title : English
Language : English
Default : No
Forced : No

Text #5
ID : 8
Format : UTF-8
Codec ID : S_TEXT/UTF8
Codec ID/Info : UTF-8 Plain Text
Duration : 1 h 46 min
Bit rate : 40 b/s
Count of elements : 1115
Stream size : 31.9 KiB (0%)
Title : English
Language : English
Default : No
Forced : No

Text #6
ID : 9
Format : UTF-8
Codec ID : S_TEXT/UTF8
Codec ID/Info : UTF-8 Plain Text
Duration : 1 h 46 min
Bit rate : 38 b/s
Count of elements : 987
Stream size : 29.7 KiB (0%)
Title : Spanish
Language : Spanish
Default : No
Forced : No

DOWNLOAD


PART01 |||| PART02 |||| PART03 |||| PART04 |||| PART05

PART01 |||| PART02 |||| PART03 |||| PART04 |||| PART05

PART01 |||| PART02 |||| PART03 |||| PART04 |||| PART05

PART01 |||| PART02 |||| PART03 |||| PART04 |||| PART05

PART01 |||| PART02 |||| PART03 |||| PART04 |||| PART05


Leave A Reply

อีเมล์ของคุณจะไม่แสดงให้เห็น Your email address will not be published.

%d bloggers like this: