[MINI-HD] Step Up (2006) สเต็ปโดนใจ หัวใจโดนเธอ ภาค 1 [1080p] [พากย์ไทย 5.1 + เสียงอังกฤษ DTS] [บรรยายไทย + อังกฤษ] [เสียงไทย + ซับไทย] [OPENLOAD]

0

โหลดหนัง Step Up (2006) สเต็ปโดนใจ หัวใจโดนเธอ ภาค 1

Step Up (2006) 1h 44min | Crime, Drama, Music | 11 August 2006 (Canada) Summary: Tyler Gage receives the opportunity of a lifetime after vandalizing a performing arts school, gaining him the chance to earn a scholarship and dance with an up and coming dancer, Nora.
Countries: USALanguages: English

เรื่องย่อ Step Up (2006) สเต็ปโดนใจ หัวใจโดนเธอ ภาค 1

ไทเลอร์ เกจ วัยรุ่นข้างถนนที่มีพรสวรรค์ด้านการเต้นเขาฝันว่าสักวันจะก้าวออกไปจากสังคมห่วยๆ และมีอนาคตที่ดีส่วนนอร่านักเรียนบัลเล่ต์สาวแห่งโรงเรียนสอนศิลปะสุดหรูของรัฐแมรี่แลนด์กำลังมองหาคู่เต้นสำหรับงานแสดงนักเรียนปีสุดท้ายกระทั่งวันหนึ่งไทเลอร์ต้องไปบำเพ็ญประโยชน์ที่โรงเรียนของนอร่าและการเต้นของเขาเตะตานอร่าอย่างจัง เธอจึงชวนมาเป็นคู่เต้นในงานความสัมพันธ์ทั้งคู่จุดประกายพร้อมๆ กับหลอมรวมการเต้นฮิปฮอปอันดุดันแข็งแกร่งของไทเลอร์ กับการเต้นบัลเล่ต์อันพลิ้วไหวงดงามของนอร่าไทเลอร์ก็ได้รู้ว่าแค่การเต้นเพียงครั้งเดียวก็สามารถเปลี่ยนชีวิตของเขาได้

Complete name : [MINI-HD]_Step.Up.2006.1080p.BDRip.DTS.x264.One2loadup.com.mkv
Format : Matroska
Format version : Version 4
File size : 9.25 GiB
Duration : 1 h 43 min
Overall bit rate mode : Variable
Overall bit rate : 12.8 Mb/s
Movie name : [MINI-HD]_Step.Up.2006.1080p.BDRip.DTS.x264.One2loadup.com
Encoded date : UTC 2018-03-06 14:25:55
Writing application : mkvmerge v8.2.0 (‘World of Adventure’) 64bit
Writing library : libebml v1.3.1 + libmatroska v1.4.2

Video
ID : 1
Format : AVC
Format/Info : Advanced Video Codec
Format profile : [email protected]
Format settings : CABAC / 3 Ref Frames
Format settings, CABAC : Yes
Format settings, ReFrames : 3 frames
Codec ID : V_MPEG4/ISO/AVC
Duration : 1 h 43 min
Bit rate mode : Variable
Bit rate : 10.4 Mb/s
Maximum bit rate : 25.0 Mb/s
Width : 1 916 pixels
Height : 820 pixels
Display aspect ratio : 2.35:1
Frame rate mode : Constant
Frame rate : 23.976 (24000/1001) FPS
Original frame rate : 24.000 FPS
Color space : YUV
Chroma subsampling : 4:2:0
Bit depth : 8 bits
Scan type : Progressive
Bits/(Pixel*Frame) : 0.276
Stream size : 7.49 GiB (81%)
Title : [MINI-HD]_Step.Up.2006.1080p.BDRip.DTS.x264.One2loadup.com
Writing library : x264 core 65 r1066M 045ae40
Encoding settings : cabac=1 / ref=3 / deblock=1:0:0 / analyse=0x3:0x133 / me=umh / subme=7 / psy_rd=1.0:0.0 / mixed_ref=1 / me_range=16 / chroma_me=1 / trellis=1 / 8x8dct=1 / cqm=0 / deadzone=21,11 / chroma_qp_offset=-2 / threads=6 / nr=0 / decimate=1 / mbaff=0 / bframes=3 / b_pyramid=0 / b_adapt=1 / b_bias=0 / direct=3 / wpredb=1 / keyint=250 / keyint_min=25 / scenecut=40(pre) / rc=2pass / bitrate=10407 / ratetol=1.0 / qcomp=0.60 / qpmin=10 / qpmax=51 / qpstep=4 / cplxblur=20.0 / qblur=0.5 / vbv_maxrate=25000 / vbv_bufsize=25000 / ip_ratio=1.40 / pb_ratio=1.30 / aq=1:1.00
Language : English
Default : Yes
Forced : No

Audio #1
ID : 2
Format : AC-3
Format/Info : Audio Coding 3
Commercial name : Dolby Digital
Codec ID : A_AC3
Duration : 1 h 43 min
Bit rate mode : Constant
Bit rate : 448 kb/s
Channel(s) : 6 channels
Channel layout : L R C LFE Ls Rs
Sampling rate : 44.1 kHz
Frame rate : 28.711 FPS (1536 SPF)
Bit depth : 16 bits
Compression mode : Lossy
Delay relative to video : 50 ms
Stream size : 330 MiB (3%)
Title : Thai AC-3
Language : Thai
Service kind : Complete Main
Default : Yes
Forced : Yes

Audio #2
ID : 3
Format : DTS
Format/Info : Digital Theater Systems
Codec ID : A_DTS
Duration : 1 h 43 min
Bit rate mode : Constant
Bit rate : 1 509 kb/s
Channel(s) : 6 channels
Channel layout : C L R Ls Rs LFE
Sampling rate : 48.0 kHz
Frame rate : 93.750 FPS (512 SPF)
Bit depth : 24 bits
Compression mode : Lossy
Delay relative to video : 11 ms
Stream size : 1.09 GiB (12%)
Title : Eng DTS
Language : English
Default : No
Forced : No

Audio #3
ID : 4
Format : AC-3
Format/Info : Audio Coding 3
Commercial name : Dolby Digital
Codec ID : A_AC3
Duration : 1 h 43 min
Bit rate mode : Constant
Bit rate : 448 kb/s
Channel(s) : 6 channels
Channel layout : L R C LFE Ls Rs
Sampling rate : 48.0 kHz
Frame rate : 31.250 FPS (1536 SPF)
Bit depth : 16 bits
Compression mode : Lossy
Delay relative to video : 20 ms
Stream size : 331 MiB (3%)
Title : Eng AC-3
Language : English
Service kind : Complete Main
Default : No
Forced : No

Text #1
ID : 5
Format : VobSub
Muxing mode : zlib
Codec ID : S_VOBSUB
Codec ID/Info : Picture based subtitle format used on DVDs
Duration : 1 h 36 min
Bit rate : 4 107 b/s
Count of elements : 1373
Stream size : 2.82 MiB (0%)
Title : Thai
Language : Thai
Default : No
Forced : No

Text #2
ID : 6
Format : VobSub
Muxing mode : zlib
Codec ID : S_VOBSUB
Codec ID/Info : Picture based subtitle format used on DVDs
Duration : 1 h 36 min
Bit rate : 1 595 b/s
Count of elements : 1373
Stream size : 1.10 MiB (0%)
Title : Thai
Language : Thai
Default : No
Forced : No

Text #3
ID : 7
Format : VobSub
Muxing mode : zlib
Codec ID : S_VOBSUB
Codec ID/Info : Picture based subtitle format used on DVDs
Duration : 1 h 36 min
Bit rate : 4 108 b/s
Count of elements : 1373
Stream size : 2.82 MiB (0%)
Title : Thai Out
Language : Thai
Default : No
Forced : No

Text #4
ID : 8
Format : PGS
Muxing mode : zlib
Codec ID : S_HDMV/PGS
Codec ID/Info : Picture based subtitle format used on BDs/HD-DVDs
Duration : 1 h 36 min
Bit rate : 5 524 b/s
Count of elements : 2746
Stream size : 3.80 MiB (0%)
Title : Thai PGS
Language : Thai
Default : No
Forced : No

Text #5
ID : 9
Format : VobSub
Muxing mode : zlib
Codec ID : S_VOBSUB
Codec ID/Info : Picture based subtitle format used on DVDs
Duration : 1 h 42 min
Bit rate : 6 903 b/s
Count of elements : 1674
Stream size : 5.07 MiB (0%)
Title : Eng
Language : English
Default : No
Forced : No

Text #6
ID : 10
Format : PGS
Muxing mode : zlib
Codec ID : S_HDMV/PGS
Codec ID/Info : Picture based subtitle format used on BDs/HD-DVDs
Duration : 1 h 42 min
Bit rate : 13.7 kb/s
Count of elements : 3354
Stream size : 10.0 MiB (0%)
Title : Eng PGS
Language : English
Default : No
Forced : No

Text #7
ID : 11
Format : UTF-8
Codec ID : S_TEXT/UTF8
Codec ID/Info : UTF-8 Plain Text
Duration : 1 h 42 min
Bit rate : 68 b/s
Count of elements : 1493
Stream size : 51.8 KiB (0%)
Title : Eng SRT
Language : English
Default : No
Forced : No

DOWNLOAD


PART01 |||| PART02 |||| PART03 |||| PART04 |||| PART05

PART01 |||| PART02 |||| PART03 |||| PART04 |||| PART05

PART01 |||| PART02 |||| PART03 |||| PART04 |||| PART05

PART01 |||| PART02 |||| PART03 |||| PART04 |||| PART05


Leave A Reply

Your email address will not be published.

%d bloggers like this: