[MINI-HD] Rocky II (1979) ร็อคกี้ ภาค 2 [720p] [พากย์ไทย 2.0 + เสียงอังกฤษ 5.1] [บรรยายไทย + อังกฤษ] [เสียงไทย + ซับไทย] [OPENLOAD]

0

โหลดหนัง Rocky II (1979) ร็อคกี้ ภาค 2

Rocky II (1979) 1h 59min | Drama, Sport | 31 January 1980 (Netherlands) Summary: Rocky struggles in family life after his bout with Apollo Creed, while the embarrassed champ insistently goads him to accept a challenge for a rematch.
Countries: USALanguages: English, Italian

เรื่องย่อ Rocky II (1979) ร็อคกี้ ภาค 2

มันคือศึกล้างตาแห่งศตวรรษเมื่อ ร้อคกี้ บัลบัว เปิดศึกฟาดปากกับอพอลโล ครีด ในภาคต่อสุดสะใจที่กลายเป็นภาพยนตร์ซึ่งได้รับการยอมรับมากที่สุดเรื่องหนึ่งในประวัติศาตร์ผู้กำกับ ผู้เขียนบท นักแสดง ซิลเวสเตอร์ สตอลโลน ประสพความสำเร็จจากการสร้างสรรค์ภาพยนตร์ปลุกเร้าพลั งใจเรื่องนี้จนได้รับการยกย่องว่า “ความพยายามอันน่าทึ่งในทุกๆเรื่อง” (อาร์เชอร์ วินสตัน จากนิวยอร์กโพสท์) หลังจากที่ร็อคกี้ บัลบัว “ซิลเวสเตอร์ สตอลโลน” นักชกข้างถนนจบศึกกับ อพอลโล ครีด แฟนมวยต่างอยากให้จัดนัดล้างตาขึ้นอีกครั้ง แต่ร็อคกี้ซึ่งได้รับบาดเจ็บอย่างหนักจากศึกที่แล้วได้ประกาศแขวนนว ม เขาหันมาทุ่มเทให้กับ เอเดรียน (ทาเลีย ไชร์) พร้อมจัดงานแต่งงานและพยายามหันมาทำงานประจำเพื่อครอบครัว แต่ความพยายามในการสร้างชีวิตใหม่ของเขา ไม่อาจต้านทานเสียงเรียกร้องภายในใจ เขาหวนกลับคืนสู่สังเวียนอีกครั้ง และ “เจ้าม้าป่าอิตาเลียน” ต้องเตรียมตัวสู้เพื่อชีวิตของเขาเอง

Complete name : [MINI-HD]_2.Rocky.II.1979.720p.BluRay.AC3.x264.One2loadup.com.mkv
Format : Matroska
Format version : Version 4
File size : 2.36 GiB
Duration : 1 h 59 min
Overall bit rate : 2 834 kb/s
Movie name : [MINI-HD]_2.Rocky.II.1979.720p.BluRay.AC3.x264.One2loadup.com
Encoded date : UTC 2013-02-09 16:01:59
Writing application : mkvmerge v6.0.0 (‘Coming Up For Air’) built on Jan 20 2013 09:52:00
Writing library : libebml v1.3.0 + libmatroska v1.4.0

Video
ID : 1
Format : AVC
Format/Info : Advanced Video Codec
Format profile : [email protected]
Format settings : CABAC / 6 Ref Frames
Format settings, CABAC : Yes
Format settings, ReFrames : 6 frames
Codec ID : V_MPEG4/ISO/AVC
Duration : 1 h 59 min
Bit rate : 2 200 kb/s
Width : 1 280 pixels
Height : 688 pixels
Display aspect ratio : 1.85:1
Frame rate mode : Constant
Frame rate : 23.976 (24000/1001) FPS
Color space : YUV
Chroma subsampling : 4:2:0
Bit depth : 8 bits
Scan type : Progressive
Bits/(Pixel*Frame) : 0.104
Stream size : 1.81 GiB (77%)
Title : [MINI-HD]_2.Rocky.II.1979.720p.BluRay.AC3.x264.One2loadup.com
Writing library : x264 core 112
Encoding settings : cabac=1 / ref=6 / deblock=1:0:0 / analyse=0x3:0x113 / me=hex / subme=9 / psy=1 / psy_rd=1.00:0.00 / mixed_ref=0 / me_range=16 / chroma_me=1 / trellis=1 / 8x8dct=1 / cqm=0 / deadzone=21,11 / fast_pskip=1 / chroma_qp_offset=-2 / threads=9 / sliced_threads=0 / nr=0 / decimate=1 / interlaced=0 / constrained_intra=0 / bframes=5 / b_pyramid=2 / b_adapt=2 / b_bias=0 / direct=1 / weightb=0 / open_gop=0 / weightp=2 / keyint=240 / keyint_min=23 / scenecut=40 / intra_refresh=0 / rc_lookahead=40 / rc=abr / mbtree=1 / bitrate=2200 / ratetol=1.0 / qcomp=0.60 / qpmin=3 / qpmax=51 / qpstep=4 / ip_ratio=1.40 / aq=1:1.00
Language : English
Default : Yes
Forced : No
Color range : Limited
Color primaries : BT.709
Transfer characteristics : BT.709
Matrix coefficients : BT.709

Audio #1
ID : 2
Format : AC-3
Format/Info : Audio Coding 3
Commercial name : Dolby Digital
Codec ID : A_AC3
Duration : 1 h 59 min
Bit rate mode : Constant
Bit rate : 224 kb/s
Channel(s) : 2 channels
Channel layout : L R
Sampling rate : 48.0 kHz
Frame rate : 31.250 FPS (1536 SPF)
Bit depth : 16 bits
Compression mode : Lossy
Stream size : 191 MiB (8%)
Title : Thai AC3 2.0 at 224 Kbps
Language : Thai
Service kind : Complete Main
Default : Yes
Forced : No

Audio #2
ID : 3
Format : AC-3
Format/Info : Audio Coding 3
Commercial name : Dolby Digital
Codec ID : A_AC3
Duration : 1 h 59 min
Bit rate mode : Constant
Bit rate : 384 kb/s
Channel(s) : 6 channels
Channel layout : L R C LFE Ls Rs
Sampling rate : 48.0 kHz
Frame rate : 31.250 FPS (1536 SPF)
Bit depth : 16 bits
Compression mode : Lossy
Stream size : 327 MiB (14%)
Title : English AC3 5.1 at 384 Kbps
Language : English
Service kind : Complete Main
Default : No
Forced : No

Text #1
ID : 4
Format : VobSub
Muxing mode : zlib
Codec ID : S_VOBSUB
Codec ID/Info : Picture based subtitle format used on DVDs
Title : Thai 480p
Language : Thai
Default : Yes
Forced : No

Text #2
ID : 5
Format : VobSub
Muxing mode : zlib
Codec ID : S_VOBSUB
Codec ID/Info : Picture based subtitle format used on DVDs
Title : Thai 1080p
Language : Thai
Default : No
Forced : No

Text #3
ID : 6
Format : VobSub
Muxing mode : zlib
Codec ID : S_VOBSUB
Codec ID/Info : Picture based subtitle format used on DVDs
Title : Thai 1080p Under
Language : Thai
Default : No
Forced : No

Text #4
ID : 7
Format : PGS
Muxing mode : zlib
Codec ID : S_HDMV/PGS
Codec ID/Info : Picture based subtitle format used on BDs/HD-DVDs
Title : Thai PGS
Language : Thai
Default : No
Forced : No

Text #5
ID : 8
Format : VobSub
Muxing mode : zlib
Codec ID : S_VOBSUB
Codec ID/Info : Picture based subtitle format used on DVDs
Title : English 1080p
Language : English
Default : No
Forced : No

Text #6
ID : 9
Format : VobSub
Muxing mode : zlib
Codec ID : S_VOBSUB
Codec ID/Info : Picture based subtitle format used on DVDs
Title : English 1080p Under
Language : English
Default : No
Forced : No

Text #7
ID : 10
Format : PGS
Muxing mode : zlib
Codec ID : S_HDMV/PGS
Codec ID/Info : Picture based subtitle format used on BDs/HD-DVDs
Title : English PGS
Language : English
Default : No
Forced : No

Text #8
ID : 11
Format : UTF-8
Codec ID : S_TEXT/UTF8
Codec ID/Info : UTF-8 Plain Text
Title : English SRT
Language : English
Default : No
Forced : No

DOWNLOAD


PART01 |||| PART02 |||| PART03

PART01 |||| PART02 |||| PART03

PART01 |||| PART02 |||| PART03

PART01 |||| PART02 |||| PART03


Leave A Reply

Your email address will not be published.

%d bloggers like this: