[MINI-HD] Punisher: War Zone (2008) เพชฌฆาตมหากาฬ ภาค 2 [1080p] [พากษ์ไทย 5.1 + เสียงอังกฤษ DTS] [บรรยายไทย + อังกฤษ] [เสียงไทย + ซับไทย] [OPENLOAD]

0

Punisher: War Zone (2008)

โหลดหนัง Punisher: War Zone (2008) เพชฌฆาตมหากาฬ ภาค 2

Punisher: War Zone (2008) 1h 43min | Action, Crime, Drama | 5 December 2008 (USA) Summary: Frank Castle known as Punisher ruthlessly demolishes organized crime, but it starts an even bigger war.
Countries: USA, Canada, GermanyLanguages: English

เรื่องย่อ Punisher: War Zone (2008) เพชฌฆาตมหากาฬ ภาค 2

แฟรงค์ คาวเซิล นาวิกโยธินและเจ้าหน้าที่เอฟบีไอ กลายเป็นคนระแวดระวัง เริ่มเข้าสู่เส้นทางการกวาดล้างเหล่าอาชญากรข้ามประเ ทศ หลังจากคาสเซิลฆ่าหัวหน้ามาเฟียที่มีอำนาจไปแล้ว รองหัวหน้ามาเฟียที่โดนเนรเทศไปอย่าง บิลลี่ รุสโซ ก็กลับมาที่นิวยอร์กอีกครั้ง รุสโซทะเยอทะยานอยากครอบครองโลกอาชญากรใต้ดิน ทำให้หัวหน้าหลุ่มที่เหลืออยู่เชื่อว่าเขาสามารถฆ่าค าสเซิลได้ แต่กลับกลายเป็นการต่อสู้สามฝ่าย เมื่อเจ้าหน้าที่เอฟบีไอ เวสต์ พุ่งเป้าไปที่การจัดการทั้งสองคนให้สิ้นซาก

Complete name : [MINI-HD]_Punisher.War.Zone.2008.1080p.BDRip.AC3.x264.One2loadup.com.mkv
Format : Matroska
Format version : Version 4
File size : 2.92 GiB
Duration : 1 h 42 min
Overall bit rate : 4 071 kb/s
Movie name : [MINI-HD]_Punisher.War.Zone.2008.1080p.BDRip.AC3.x264.One2loadup.com
Encoded date : UTC 2010-02-22 21:41:31
Writing application : mkvmerge v5.9.0 (‘On The Loose’) built on Dec 9 2012 15:37:01
Writing library : libebml v1.3.0 + libmatroska v1.4.0

Video
ID : 1
Format : AVC
Format/Info : Advanced Video Codec
Format profile : [email protected]
Format settings : CABAC / 2 Ref Frames
Format settings, CABAC : Yes
Format settings, ReFrames : 2 frames
Muxing mode : Header stripping
Codec ID : V_MPEG4/ISO/AVC
Duration : 1 h 42 min
Bit rate : 3 783 kb/s
Width : 1 920 pixels
Height : 792 pixels
Display aspect ratio : 2.40:1
Frame rate mode : Constant
Frame rate : 23.976 (24000/1001) FPS
Color space : YUV
Chroma subsampling : 4:2:0
Bit depth : 8 bits
Scan type : Progressive
Bits/(Pixel*Frame) : 0.104
Stream size : 2.63 GiB (90%)
Title : [MINI-HD]_Punisher.War.Zone.2008.1080p.BDRip.AC3.x264.One2loadup.com
Writing library : x264 core 130 r2273 b3065e6
Encoding settings : cabac=1 / ref=1 / deblock=1:0:0 / analyse=0x3:0x113 / me=hex / subme=2 / psy=1 / psy_rd=1.00:0.00 / mixed_ref=0 / me_range=16 / chroma_me=1 / trellis=0 / 8x8dct=1 / cqm=0 / deadzone=21,11 / fast_pskip=1 / chroma_qp_offset=0 / threads=6 / lookahead_threads=2 / sliced_threads=0 / nr=0 / decimate=1 / interlaced=0 / bluray_compat=0 / constrained_intra=0 / bframes=3 / b_pyramid=0 / b_adapt=1 / b_bias=0 / direct=1 / weightb=1 / open_gop=0 / weightp=1 / keyint=240 / keyint_min=24 / scenecut=40 / intra_refresh=0 / rc_lookahead=10 / rc=abr / mbtree=1 / bitrate=3783 / ratetol=1.0 / qcomp=0.60 / qpmin=0 / qpmax=69 / qpstep=4 / vbv_maxrate=17500 / vbv_bufsize=17500 / nal_hrd=none / ip_ratio=1.40 / aq=1:1.00
Language : English
Default : Yes
Forced : No
Color range : Limited
Color primaries : BT.709
Transfer characteristics : BT.709
Matrix coefficients : BT.709

Audio #1
ID : 2
Format : AC-3
Format/Info : Audio Coding 3
Commercial name : Dolby Digital
Muxing mode : Header stripping
Codec ID : A_AC3
Duration : 1 h 42 min
Bit rate mode : Constant
Bit rate : 160 kb/s
Channel(s) : 6 channels
Channel layout : L R C LFE Ls Rs
Sampling rate : 48.0 kHz
Frame rate : 31.250 FPS (1536 SPF)
Bit depth : 16 bits
Compression mode : Lossy
Stream size : 118 MiB (4%)
Title : Thai 5.1
Language : Thai
Service kind : Complete Main
Default : Yes
Forced : No

Audio #2
ID : 3
Format : AC-3
Format/Info : Audio Coding 3
Commercial name : Dolby Digital
Muxing mode : Header stripping
Codec ID : A_AC3
Duration : 1 h 42 min
Bit rate mode : Constant
Bit rate : 160 kb/s
Channel(s) : 6 channels
Channel layout : L R C LFE Ls Rs
Sampling rate : 48.0 kHz
Frame rate : 31.250 FPS (1536 SPF)
Bit depth : 16 bits
Compression mode : Lossy
Stream size : 118 MiB (4%)
Title : English 5.1
Language : English
Service kind : Complete Main
Default : No
Forced : No

Text
ID : 4
Format : VobSub
Muxing mode : zlib
Codec ID : S_VOBSUB
Codec ID/Info : Picture based subtitle format used on DVDs
Title : Thai From DVD Master
Language : Thai
Default : Yes
Forced : No

DOWNLOAD


PART01 |||| PART02 |||| PART03 |||| PART04

PART01 |||| PART02 |||| PART03 |||| PART04

PART01 |||| PART02 |||| PART03 |||| PART04

PART01 |||| PART02 |||| PART03 |||| PART04

Leave A Reply

Your email address will not be published.