[MINI-HD] Pee Nak 2 (2020) พี่นาค 2 [1080p] [Netflix] [พากย์ไทย 5.1] [บรรยายไทย + อังกฤษ] [เสียงไทย + ซับไทย] [PANDAFILE]

0

โหลดหนัง Pee Nak 2 (2020) พี่นาค 2

Pee Nak 2 | February 20, 2020 (Thailand) Summary:
Countries: ThailandLanguages: Thai

เรื่องย่อ Pee Nak 2 (2020) พี่นาค 2

หลังจากบอลลูนกับเฟิร์สแอบสึกออกไป พร้อมกับตำนานความสยองอีกหนึ่งตำนานที่ยังหลงเหลืออยู่ ความวุ่นวายจึงกลับมาอีกครั้งเมื่อสองเพื่อนซี้เจอผีพี่นาคตัวใหม่ตามรังควาน จนต้องดิ้นรนกลับมาขอบวชใหม่อีกครั้ง และได้พบกับคุณโทมินจุน โอปป้าเกาหลีที่มาขอบวชแก้บนด้วย ครั้งนี้พวกเขาจะล้างอาถรรพ์ห้ามสึกได้หรือไม่ แล้วคุณโทจะได้บวชแก้บนหรือเปล่า มาร่วมเอาใจช่วยพวกเขาในการล้างอาถรรพ์ความเฮี้ยนบทใหม่กันได้ใน #พี่นาค2!!

Complete name : [MINI-HD]_Pee.Nak.2.2020.1080p.NF.WEB-DL.EAC3.H264.One2loadup.com.mkv
Format : Matroska
Format version : Version 4
File size : 4.49 GiB
Duration : 1 h 54 min
Overall bit rate : 5 626 kb/s
Movie name : [MINI-HD]_Pee.Nak.2.2020.1080p.NF.WEB-DL.EAC3.One2loadup.com
Encoded date : UTC 2020-08-20 12:31:23
Writing application : mkvmerge v49.0.0 (‘Sick Of Losing Soulmates’) 64-bit
Writing library : libebml v1.4.0 + libmatroska v1.6.1

Video
ID : 1
Format : AVC
Format/Info : Advanced Video Codec
Format profile : [email protected]
Format settings : CABAC / 3 Ref Frames
Format settings, CABAC : Yes
Format settings, ReFrames : 3 frames
Codec ID : V_MPEG4/ISO/AVC
Duration : 1 h 54 min
Bit rate : 4 943 kb/s
Width : 1 920 pixels
Height : 804 pixels
Display aspect ratio : 2.40:1
Frame rate mode : Constant
Frame rate : 24.000 FPS
Color space : YUV
Chroma subsampling : 4:2:0
Bit depth : 8 bits
Scan type : Progressive
Bits/(Pixel*Frame) : 0.133
Stream size : 3.94 GiB (88%)
Title : [MINI-HD]_Pee.Nak.2.2020.1080p.NF.WEB-DL.EAC3.One2loadup.com
Language : Thai
Default : Yes
Forced : No

Audio
ID : 2
Format : E-AC-3
Format/Info : Enhanced AC-3
Commercial name : Dolby Digital Plus
Codec ID : A_EAC3
Duration : 1 h 54 min
Bit rate mode : Constant
Bit rate : 640 kb/s
Channel(s) : 6 channels
Channel layout : L R C LFE Ls Rs
Sampling rate : 48.0 kHz
Frame rate : 31.250 FPS (1536 SPF)
Compression mode : Lossy
Stream size : 523 MiB (11%)
Title : AC-3 Thai
Language : Thai
Service kind : Complete Main
Default : Yes
Forced : No

Text #1
ID : 3
Format : VobSub
Muxing mode : zlib
Codec ID : S_VOBSUB
Codec ID/Info : Picture based subtitle format used on DVDs
Duration : 1 h 53 min
Bit rate : 9 828 b/s
Count of elements : 1595
Stream size : 8.01 MiB (0%)
Title : Sub Thai 1080p
Language : Thai
Default : No
Forced : No

Text #2
ID : 4
Format : UTF-8
Codec ID : S_TEXT/UTF8
Codec ID/Info : UTF-8 Plain Text
Duration : 1 h 53 min
Bit rate : 111 b/s
Count of elements : 1595
Stream size : 92.9 KiB (0%)
Title : Sub Thai SRT
Language : Thai
Default : No
Forced : No

Text #3
ID : 5
Format : PGS
Muxing mode : zlib
Codec ID : S_HDMV/PGS
Codec ID/Info : Picture based subtitle format used on BDs/HD-DVDs
Duration : 1 h 53 min
Bit rate : 32.6 kb/s
Count of elements : 3190
Stream size : 26.6 MiB (1%)
Title : Sub Thai PGS
Language : Thai
Default : No
Forced : No

Text #4
ID : 6
Format : VobSub
Muxing mode : zlib
Codec ID : S_VOBSUB
Codec ID/Info : Picture based subtitle format used on DVDs
Duration : 1 h 52 min
Bit rate : 8 247 b/s
Count of elements : 1493
Stream size : 6.64 MiB (0%)
Title : Sub English 1080p
Language : English
Default : No
Forced : No

Text #5
ID : 7
Format : UTF-8
Codec ID : S_TEXT/UTF8
Codec ID/Info : UTF-8 Plain Text
Duration : 1 h 52 min
Bit rate : 42 b/s
Count of elements : 1493
Stream size : 34.9 KiB (0%)
Title : Sub English SRT
Language : English
Default : No
Forced : No

Text #6
ID : 8
Format : PGS
Muxing mode : zlib
Codec ID : S_HDMV/PGS
Codec ID/Info : Picture based subtitle format used on BDs/HD-DVDs
Duration : 1 h 52 min
Bit rate : 28.1 kb/s
Count of elements : 2986
Stream size : 22.6 MiB (0%)
Title : Sub English PGS
Language : English
Default : Yes
Forced : No

 

DOWNLOAD


PART01 |||| PART02 |||| PART03 |||| PART04 |||| PART05

PART01 |||| PART02 |||| PART03 |||| PART04 |||| PART05

PART01 |||| PART02 |||| PART03 |||| PART04 |||| PART05

PART01 |||| PART02 |||| PART03 |||| PART04 |||| PART05

PART01 |||| PART02 |||| PART03 |||| PART04 |||| PART05


Leave A Reply

อีเมล์ของคุณจะไม่แสดงให้เห็น Your email address will not be published.

%d bloggers like this: