[Mini-HD] Pearl Harbor (2001) เพิร์ล ฮาร์เบอร์ [1080p] [พากย์ไทย DTS + เสียงอังกฤษ DTS] [บรรยายไทย + อังกฤษ] [เสียงไทย + ซับไทย] [PANDAFILE]

3

โหลดหนัง Pearl Harbor (2001) เพิร์ล ฮาร์เบอร์

Pearl Harbor | May 25, 2001 (United States) Summary: A tale of war and romance mixed in with history. The story follows two lifelong friends and a beautiful nurse who are caught up in the horror of an infamous Sunday morning in 1941.
Countries: United StatesLanguages: English, Japanese, French

เรื่องย่อ Pearl Harbor (2001) เพิร์ล ฮาร์เบอร์

เพิร์ล ฮาร์เบอร์ ภาพยนตร์เอพิคฮิตถล่มทลาย ที่มาพร้อมเทคนิคภาพอันยิ่งใหญ่และตื่นตาเรื่องนี้ คืออีกหนึ่งผลงาน ที่จะตรึงหัวใจคุณ จากฝีมือของผู้อำนวยการสร้าง เจอร์รี่ บรั๊คไฮเมอร์ และผู้กำกับ ไมเคิล เบย์ ทีมมือทองผู้เคยพา คุณสัมผัสความมันส์จาก Armageddon มาแล้ว พบ เบ็น อัฟเฟล็ค (Good Will Hunting, Armageddon) จอช ฮาร์ทเน็ทท์ (The Faculty)และ เคท เบ็คคินเซล (Brokedown Palace) ในภาพยนตร์ที่รวมดาราชั้นนำไว้อย่างคับคั่ง เมื่อผู้บริสุทธิ์มากมายและความสงบสุขของประเทศถูกทำ ลายอย่างไม่ทันตั้งตัวด้วยพลังร้ายแห่งสงคราม หลากหลายชีวิตของคนรุ่นหนึ่งกำลังเผชิญกับความขัดแย้ งครั้งยิ่งใหญ่ของมวลมนุษยชาติ หรือที่รู้จักกันในนาม “สงครามโลกครั้งที่ 2” เหตุการณ์บุกโจมตีเพิร์ล ฮาร์เบอร์ ได้กลายเป็นบททดสอบความแข็งแกร่งครั้งสำคัญที่สุด ในจิตใจของผู้ร่วมเหตุการณ์และผู้คนทั่วโลก สมทบด้วย คิวบา กู๊ดดิ้ง จูเนียร์ (Jerry Maguire, Men Of Honor), อเล็ค บอลด์วิน(Outside Providence) , จอน วอยท์ (Coming Home, Enemy Of The State) และทอม ไซส์มอร์ (Saving Private Ryan) นี่คือเรื่องราวอันยิ่งใหญ่ของความรักความสูญเสีย และวีรกรรมกล้า ในเหตุการณ์แห่งความทรงจำที่คุณต้องระลึกถึง

Complete name : [MINI-HD]_Pearl.Harbor.2001.1080p.BDRip.x264.One2loadup.com.mkv
Format : Matroska
Format version : Version 4 / Version 2
File size : 4.31 GiB
Duration : 3 h 3 min
Overall bit rate : 3 373 kb/s
Movie name : Pearl.Harbor.2001.1080p.BDRip
Encoded date : UTC 2017-04-01 01:33:51
Writing application : mkvmerge v9.7.1 (‘Pandemonium’) 64bit
Writing library : libebml v1.3.4 + libmatroska v1.4.5

Video
ID : 1
Format : AVC
Format/Info : Advanced Video Codec
Format profile : [email protected]
Format settings, CABAC : Yes
Format settings, RefFrames : 4 frames
Codec ID : V_MPEG4/ISO/AVC
Duration : 3 h 3 min
Bit rate : 1 831 kb/s
Width : 1 920 pixels
Height : 800 pixels
Display aspect ratio : 2.40:1
Frame rate mode : Constant
Frame rate : 23.976 (24000/1001) FPS
Color space : YUV
Chroma subsampling : 4:2:0
Bit depth : 8 bits
Scan type : Progressive
Bits/(Pixel*Frame) : 0.050
Stream size : 2.34 GiB (54%)
Title : Pearl.Harbor.2001.1080p.BDRip
Writing library : x264 core 146 r2538 121396c
Encoding settings : cabac=1 / ref=4 / deblock=1:-3:-3 / analyse=0x3:0x113 / me=umh / subme=11 / psy=1 / psy_rd=1.00:0.00 / mixed_ref=1 / me_range=64 / chroma_me=1 / trellis=2 / 8x8dct=1 / cqm=0 / deadzone=21,11 / fast_pskip=0 / chroma_qp_offset=-2 / threads=6 / lookahead_threads=1 / sliced_threads=0 / nr=0 / decimate=1 / interlaced=0 / bluray_compat=0 / constrained_intra=0 / bframes=4 / b_pyramid=2 / b_adapt=2 / b_bias=0 / direct=3 / weightb=1 / open_gop=0 / weightp=2 / keyint=250 / keyint_min=23 / scenecut=40 / intra_refresh=0 / rc_lookahead=120 / rc=2pass / mbtree=1 / bitrate=1831 / ratetol=1.0 / qcomp=0.60 / qpmin=0 / qpmax=69 / qpstep=4 / cplxblur=20.0 / qblur=0.5 / vbv_maxrate=99999 / vbv_bufsize=99999 / nal_hrd=none / filler=0 / ip_ratio=1.40 / aq=1:1.00
Language : English
Default : Yes
Forced : No

Audio #1
ID : 2
Format : DTS
Format/Info : Digital Theater Systems
Mode : 16
Format settings, Endianness : Big
Codec ID : A_DTS
Duration : 3 h 3 min
Bit rate mode : Constant
Bit rate : 755 kb/s
Channel(s) : 6 channels
Channel positions : Front: L C R, Side: L R, LFE
Sampling rate : 48.0 kHz
Frame rate : 93.750 FPS (512 SPF)
Bit depth : 24 bits
Compression mode : Lossy
Stream size : 988 MiB (22%)
Title : Eng DTS
Language : English
Default : No
Forced : No

Audio #2
ID : 3
Format : DTS
Format/Info : Digital Theater Systems
Mode : 16
Format settings, Endianness : Big
Codec ID : A_DTS
Duration : 3 h 3 min
Bit rate mode : Constant
Bit rate : 755 kb/s
Channel(s) : 6 channels
Channel positions : Front: L C R, Side: L R, LFE
Sampling rate : 48.0 kHz
Frame rate : 93.750 FPS (512 SPF)
Bit depth : 24 bits
Compression mode : Lossy
Stream size : 988 MiB (22%)
Title : Thai DTS
Language : Thai
Default : Yes
Forced : Yes

Text #1
ID : 4
Format : VobSub
Muxing mode : zlib
Codec ID : S_VOBSUB
Codec ID/Info : Picture based subtitle format used on DVDs
Duration : 2 h 50 min
Bit rate : 2 130 b/s
Count of elements : 1846
Stream size : 2.61 MiB (0%)
Title : 480P FROM BLU-RAY
Language : English
Default : No
Forced : No

Text #2
ID : 5
Format : VobSub
Muxing mode : zlib
Codec ID : S_VOBSUB
Codec ID/Info : Picture based subtitle format used on DVDs
Duration : 2 h 51 min
Bit rate : 1 764 b/s
Count of elements : 2069
Stream size : 2.16 MiB (0%)
Title : 480P FROM BLU-RAY
Language : Thai
Default : No
Forced : No

Text #3
ID : 6
Format : VobSub
Muxing mode : zlib
Codec ID : S_VOBSUB
Codec ID/Info : Picture based subtitle format used on DVDs
Duration : 2 h 51 min
Bit rate : 1 766 b/s
Count of elements : 2069
Stream size : 2.16 MiB (0%)
Title : 480P FROM BLU-RAY UNDER
Language : Thai
Default : No
Forced : No

Text #4
ID : 7
Format : VobSub
Muxing mode : zlib
Codec ID : S_VOBSUB
Codec ID/Info : Picture based subtitle format used on DVDs
Duration : 2 h 51 min
Bit rate : 5 622 b/s
Count of elements : 2069
Stream size : 6.89 MiB (0%)
Title : 1080P FROM BLU-RAY
Language : Thai
Default : Yes
Forced : Yes

Text #5
ID : 8
Format : PGS
Muxing mode : zlib
Codec ID : S_HDMV/PGS
Codec ID/Info : Picture based subtitle format used on BDs/HD-DVDs
Duration : 2 h 51 min
Bit rate : 20.9 kb/s
Count of elements : 4138
Stream size : 25.6 MiB (1%)
Title : PGS FROM BLU-RAY
Language : Thai
Default : No
Forced : No

DOWNLOAD


PART01 |||| PART02 |||| PART03 |||| PART04 |||| PART05

PART01 |||| PART02 |||| PART03 |||| PART04 |||| PART05

PART01 |||| PART02 |||| PART03 |||| PART04 |||| PART05

PART01 |||| PART02 |||| PART03 |||| PART04 |||| PART05

PART01 |||| PART02 |||| PART03 |||| PART04 |||| PART05


3 Comments
  1. Boydm Lion
    Boydm Lion says

    แก้ให้หน่อยครับบ โหลดไม่ได้แล้วครับ

    1. Admin
      Admin says

      แก้ไขเรียบร้อยฮ๊ะ

  2. Boydm Lion
    Boydm Lion says

    ขอบคุณครับบ

Leave A Reply

อีเมล์ของคุณจะไม่แสดงให้เห็น Your email address will not be published.

%d bloggers like this: