[MINI-HD] Paydirt (2020) ปล้นซ้อนแผน [1080p] [พากย์ไทย 2.0 + เสียงอังกฤษ 2.0] [บรรยายไทยฝัง] [เสียงไทย + ซับไทย] [PANDAFILE]

0

โหลดหนัง Paydirt (2020) ปล้นซ้อนแผน

Paydirt (2020) 81min | Action, Crime, Thriller | 7 August 2020 (USA) Summary: A parolee teams up with his old crew determined to find a buried bag of cash stolen five years ago from a DEA bust gone bad, while being tracked by a retired Sheriff.
Countries: USA

เรื่องย่อ Paydirt (2020) ปล้นซ้อนแผน

นักโทษทัณฑ์บนและเพื่อนร่วมงานเก่าของเขาตัดสินใจที่ จะหาถุงใต้ดินที่เงินสดถูกขโมยไปเมื่อสิบปีก่อนจากการแก้คดียาเสพติดที่ถูกติดตามโดยนายอำเภอเกษียณ

Complete name : [MINI-HD]_Paydirt.2020.1080p.WEB-DL.AC3.x264.One2loadup.com.mkv
Format : Matroska
Format version : Version 4
File size : 3.44 GiB
Duration : 1 h 20 min
Overall bit rate mode : Constant
Overall bit rate : 6 141 kb/s
Movie name : [MINI-HD]_Paydirt.2020.1080p.WEB-DL.AC3.x264.One2loadup.com
Encoded date : UTC 2021-04-20 15:42:14
Writing application : mkvmerge v56.1.0 (‘My Friend’) 64-bit
Writing library : libebml v1.4.2 + libmatroska v1.6.4

Video
ID : 1
Format : AVC
Format/Info : Advanced Video Codec
Format profile : [email protected]
Format settings : CABAC / 1 Ref Frames
Format settings, CABAC : Yes
Format settings, Reference : 1 frame
Format settings, GOP : M=1, N=25
Codec ID : V_MPEG4/ISO/AVC
Duration : 1 h 20 min
Bit rate mode : Constant
Bit rate : 5 500 kb/s
Width : 1 920 pixels
Height : 890 pixels
Display aspect ratio : 2.2:1
Frame rate mode : Constant
Frame rate : 29.970 (30000/1001) FPS
Color space : YUV
Chroma subsampling : 4:2:0
Bit depth : 8 bits
Scan type : Progressive
Bits/(Pixel*Frame) : 0.107
Stream size : 3.08 GiB (90%)
Title : [MINI-HD]_Paydirt.2020.1080p.WEB-DL.AC3.x264.One2loadup.com
Language : Thai
Default : Yes
Forced : No

Audio #1
ID : 2
Format : AC-3
Format/Info : Audio Coding 3
Commercial name : Dolby Digital
Codec ID : A_AC3
Duration : 1 h 20 min
Bit rate mode : Constant
Bit rate : 320 kb/s
Channel(s) : 2 channels
Channel layout : L R
Sampling rate : 44.1 kHz
Frame rate : 28.711 FPS (1536 SPF)
Compression mode : Lossy
Stream size : 184 MiB (5%)
Title : Th.AC3_2.0.320K
Language : Thai
Service kind : Complete Main
Default : Yes
Forced : No

Audio #2
ID : 3
Format : AC-3
Format/Info : Audio Coding 3
Commercial name : Dolby Digital
Codec ID : A_AC3
Duration : 1 h 20 min
Bit rate mode : Constant
Bit rate : 320 kb/s
Channel(s) : 2 channels
Channel layout : L R
Sampling rate : 44.1 kHz
Frame rate : 28.711 FPS (1536 SPF)
Compression mode : Lossy
Stream size : 184 MiB (5%)
Title : En.AC3_2.0.320K
Language : English
Service kind : Complete Main
Default : No
Forced : No

DOWNLOAD


PART01 |||| PART02 |||| PART03 |||| PART04

PART01 |||| PART02 |||| PART03 |||| PART04

PART01 |||| PART02 |||| PART03 |||| PART04

PART01 |||| PART02 |||| PART03 |||| PART04

PART01 |||| PART02 |||| PART03 |||| PART04


Leave A Reply

Your email address will not be published.

%d bloggers like this: