[MINI-HD] Necromancer 2020 (2019) จอมขมังเวทย์ 2020 [1080p] [พากย์ไทย 5.1] [บรรยายไทย + อังกฤษ] [เสียงไทย + ซับไทย] [PANDAFILE]

0

โหลดหนัง Necromancer 2020 (2019) จอมขมังเวทย์ 2020

เรื่องย่อ Necromancer 2020 (2019) จอมขมังเวทย์ 2020

ถ้าอยากชนะตำนาน จงเป็นให้ได้ยิ่งกว่าตำนาน ความเชื่อ ศรัทธา อาคม ที่เหมือนจะอยู่ไกลจากตัวเรา แต่มันแอบปะปนและอยู่ใกล้ตัวเรากว่าที่คิด เรื่องราวของไสยเวทอาคมขลังแห่งโลกยุคใหม่กำลังเริ่มต้น…หลังการสูญเสียครั้งใหญ่ทำให้ “วิน” (หมาก ปริญ) ชายหนุ่มผู้รอดชีวิต ต้องเปลี่ยนความเชื่อและศรัทธาที่มีต่อสิ่งเหนือธรรมชาติเพื่อสืบหาและจัดการฆาตกรด้วยตนเอง แต่ยิ่งสืบหามากเท่าใดเขาก็ยิ่งถลำลึกสู่ศาสตร์แห่งไสยเวทมากขึ้นไปทุกที จนต้องเข้าไปพัวพันกับ “จอมขมังเวทในตำนาน” (นก ฉัตรชัย) และกลุ่มผู้มีความเชื่อมั่นในชีวิตที่ดีอันมี ครูเมย์  (นก สินจัย) เป็นผู้นำและ ก็อด  (ก๊อต จิรายุ) ผู้ให้การสนับสนุน ซึ่งล้วนแล้วแต่มีความเกี่ยวข้องกับปริศนาครั้งนี้ การปะทะอันดุเดือดของ “เหล่าจอมขมังเวท” ที่มีศรัทธาแห่งตัวตนเป็นเดิมพัน ชี้ชะตาแห่งโลกของเหล่าจอมขมังเวทที่กำลังจะปะทุถึงขีดสุด เปิดฉากโลกไสยเวทย์ อาคมขลัง แอคชั่นมันส์ระอุ การปะทะกันของ “จอมขมังเวทย์รุ่นใหม่” และ “จอมขมังเวทย์ในตำนาน”!!

Complete name :[MINI-HD]_Necromancer.2020.2019.1080p.NF.WEB-DL.AC3.x264.One2loadup.com.mkv
Format : Matroska
Format version : Version 4
File size : 2.94 GiB
Duration : 1 h 53 min
Overall bit rate mode : Variable
Overall bit rate : 3 695 kb/s
Movie name : [MINI-HD]_Necromancer.2020.2019.1080p.NF.WEB-DL.AC3.x264.One2loadup.com
Encoded date : UTC 2020-07-15 18:37:48
Writing application : mkvmerge v48.0.0 (‘Fortress Around Your Heart’) 64-bit
Writing library : libebml v1.4.0 + libmatroska v1.6.0

Video
ID : 1
Format : AVC
Format/Info : Advanced Video Codec
Format profile : [email protected]
Format settings : CABAC / 1 Ref Frames
Format settings, CABAC : Yes
Format settings, ReFrames : 1 frame
Codec ID : V_MPEG4/ISO/AVC
Duration : 1 h 53 min
Bit rate mode : Variable
Bit rate : 3 001 kb/s
Maximum bit rate : 6 000 kb/s
Width : 1 920 pixels
Height : 1 080 pixels
Display aspect ratio : 16:9
Frame rate mode : Constant
Frame rate : 25.000 FPS
Original frame rate : 29.970 (30000/1001) FPS
Color space : YUV
Chroma subsampling : 4:2:0
Bit depth : 8 bits
Scan type : Progressive
Bits/(Pixel*Frame) : 0.058
Stream size : 2.39 GiB (81%)
Title : [MINI-HD]_Necromancer.2020.2019.1080p.NF.WEB-DL.AC3.x264.One2loadup.com
Default : Yes
Forced : No

Audio
ID : 2
Format : E-AC-3
Format/Info : Enhanced AC-3
Commercial name : Dolby Digital Plus
Codec ID : A_EAC3
Duration : 1 h 53 min
Bit rate mode : Constant
Bit rate : 640 kb/s
Channel(s) : 6 channels
Channel layout : L R C LFE Ls Rs
Sampling rate : 48.0 kHz
Frame rate : 31.250 FPS (1536 SPF)
Compression mode : Lossy
Stream size : 521 MiB (17%)
Title : Thai E-AC-3 5.1 / 640 kb/s
Language : Thai
Service kind : Complete Main
Default : Yes
Forced : No

Text #1
ID : 3
Format : UTF-8
Codec ID : S_TEXT/UTF8
Codec ID/Info : UTF-8 Plain Text
Duration : 1 h 53 min
Bit rate : 85 b/s
Count of elements : 1100
Stream size : 71.4 KiB (0%)
Title : Thai SRT From Netflix
Language : Thai
Default : Yes
Forced : No

Text #2
ID : 4
Format : UTF-8
Codec ID : S_TEXT/UTF8
Codec ID/Info : UTF-8 Plain Text
Duration : 1 h 38 min
Bit rate : 0 b/s
Count of elements : 7
Stream size : 290 Bytes (0%)
Title : Thai SRT From Netflix Forced
Language : Thai
Default : No
Forced : No

Text #3
ID : 5
Format : UTF-8
Codec ID : S_TEXT/UTF8
Codec ID/Info : UTF-8 Plain Text
Duration : 1 h 49 min
Bit rate : 24 b/s
Count of elements : 791
Stream size : 19.4 KiB (0%)
Title : English SRT
Language : English
Default : No
Forced : No

Text #4
ID : 6
Format : PGS
Muxing mode : zlib
Codec ID : S_HDMV/PGS
Codec ID/Info : Picture based subtitle format used on BDs/HD-DVDs
Duration : 1 h 53 min
Bit rate : 26.1 kb/s
Count of elements : 2200
Stream size : 21.2 MiB (1%)
Title : Thai PGS [Angsana]
Language : Thai
Default : No
Forced : No

Text #5
ID : 7
Format : PGS
Muxing mode : zlib
Codec ID : S_HDMV/PGS
Codec ID/Info : Picture based subtitle format used on BDs/HD-DVDs
Duration : 1 h 53 min
Bit rate : 26.1 kb/s
Count of elements : 2200
Stream size : 21.2 MiB (1%)
Title : Thai PGS [Angsana Yellow]
Language : Thai
Default : No
Forced : No

Text #6
ID : 8
Format : PGS
Muxing mode : zlib
Codec ID : S_HDMV/PGS
Codec ID/Info : Picture based subtitle format used on BDs/HD-DVDs
Duration : 1 h 53 min
Bit rate : 25.8 kb/s
Count of elements : 2200
Stream size : 21.0 MiB (1%)
Title : Thai PGS [Sarabun]
Language : Thai
Default : No
Forced : No

Text #7
ID : 9
Format : PGS
Muxing mode : zlib
Codec ID : S_HDMV/PGS
Codec ID/Info : Picture based subtitle format used on BDs/HD-DVDs
Duration : 1 h 53 min
Bit rate : 25.8 kb/s
Count of elements : 2200
Stream size : 21.0 MiB (1%)
Title : Thai PGS [Sarabun Yellow]
Language : Thai
Default : No
Forced : No

Text #8
ID : 10
Format : PGS
Muxing mode : zlib
Codec ID : S_HDMV/PGS
Codec ID/Info : Picture based subtitle format used on BDs/HD-DVDs
Duration : 1 h 49 min
Bit rate : 15.2 kb/s
Count of elements : 1582
Stream size : 11.9 MiB (0%)
Title : English PGS
Language : English
Default : No
Forced : No

DOWNLOAD


PART01 |||| PART02 |||| PART03 |||| PART04

PART01 |||| PART02 |||| PART03 |||| PART04

PART01 |||| PART02 |||| PART03 |||| PART04

PART01 |||| PART02 |||| PART03 |||| PART04

PART01 |||| PART02 |||| PART03 |||| PART04



Disable Comments
%d bloggers like this: