[MINI-HD] Monster House (2006) บ้านผีสิง [720p] [พากย์ไทย 5.1 + เสียงอังกฤษ 5.1] [บรรยายไทย + อังกฤษ] [เสียงไทย + ซับไทย] [OPENLOAD]

0

Monster House (2006)

โหลดหนัง Monster House (2006) บ้านผีสิง

Monster House (2006) 1h 31min | Animation, Adventure, Comedy | 17 August 2006 (Netherlands) Summary: Three teens discover that their neighbor's house is really a living, breathing, scary monster.
Countries: USALanguages: English

เรื่องย่อ Monster House (2006) บ้านผีสิง

แล้วเรื่องที่ไม่คาดฝันก็เกิดขึ้นก่อนวันฮาโลวีน 1 วัน เมื่อลูกบาสเก็ตบอลของ วอลเตอร์ และเพื่อนซี้ โคเดอร์ เกิดกระเด็นไปตกในสนามหญ้าหน้าบ้านลึกลับเพียงเสี้ยววินาทีเดียว..บ้านทั้งหลังก็กลายเป็นปีศาจสยอง และขย้ำลูกบอลเข้าไปในบ้านอย่างไม่ปราณี ยิ่งไปกว่านั้นบ้านผีสิงยังจ้องจะเขมือบ “เจนนี่” เพื่อนของเขาเต่อหน้าต่อตาการผจญภัยในบ้านผีสิงจึงอุบัติขึ้นพวกเขาดิ้นรนหนีจนสุดชีวิต และพยายามบอกเรื่องจริงอันน่าสะพรึงกลัวนี้ให้คนอื่นรู้แต่ไม่มีใครเชื่อทั้ง 3 จึงร่วมมือกันวางแผนเพื่อพิสูจน์ว่ามันคือบ้านผีสิง! ที่พร้อมจะเขมือบทุกสิ่งไม่ว่าจะเป็นเวลากลางวัน หรือกลางคืน !!

โคลัมเบีย พิคเจอร์ส และสตีเว่น สปีลเบิรก์ โดยแอมบริน โปรดักชั่น ภูมิใจเสนอ Monster House ภาพยนตร์แอนิเมชั่นเรื่องแรกของโซนี่ พิคเจอร์ส สตูดิโอ ให้เสียงพากย์โดย สตีฟ บัสเซอร์มิ , นิค แคนนอน , แม็กกี้ จิลเลนฮาลล์ , จอหน์ เฮเดอร์ , เควิน เจมส์ , เจสัน ลี กำกับโดย จิล คีแนน บทภาพยนตร์โดย แดน ฮาร์มอน และร๊อบ ชราป จากนิยายแดน ฮาร์มอน และ ร๊อบ ชราป อำนวยการสร้าง และควบคุมการผลิตโดย สตีเว่น สปีลเบริก์ สร้างสรรค์งานแอนิเมชั่นโดย โซนี่ พิคเจอร์ส อิมเมจเวิรค์ อิงค์

Complete name : [MINI-HD]_Monster.House.2006.720p.BrRip.AC3x264.One2loadup.com.mkv
Format : Matroska
Format version : Version 2
File size : 4.66 GiB
Duration : 1 h 30 min
Overall bit rate : 7 367 kb/s
Encoded date : UTC 2015-01-06 07:36:07
Writing application : mkvmerge v3.4.0 (‘Rapunzel’) built on May 15 2010 09:38:20
Writing library : libebml v0.8.0 + libmatroska v0.9.0

Video
ID : 1
Format : AVC
Format/Info : Advanced Video Codec
Format profile : [email protected]
Format settings : CABAC / 8 Ref Frames
Format settings, CABAC : Yes
Format settings, ReFrames : 8 frames
Codec ID : V_MPEG4/ISO/AVC
Duration : 1 h 30 min
Bit rate : 6 455 kb/s
Width : 1 280 pixels
Height : 528 pixels
Display aspect ratio : 2.40:1
Frame rate mode : Constant
Frame rate : 23.976 FPS
Color space : YUV
Chroma subsampling : 4:2:0
Bit depth : 8 bits
Scan type : Progressive
Bits/(Pixel*Frame) : 0.398
Stream size : 4.00 GiB (86%)
Writing library : x264 core 54 svn-654
Encoding settings : cabac=1 / ref=5 / deblock=1:-3:-3 / analyse=0x1:0 / me=umh / subme=7 / brdo=1 / mixed_ref=1 / me_range=16 / chroma_me=1 / trellis=1 / 8x8dct=0 / cqm=0 / deadzone=21,11 / chroma_qp_offset=0 / threads=2 / nr=0 / decimate=1 / mbaff=0 / bframes=3 / b_pyramid=1 / b_adapt=1 / b_bias=0 / direct=1 / wpredb=1 / bime=1 / keyint=250 / keyint_min=25 / scenecut=40(pre) / rc=2pass / bitrate=6455 / ratetol=1.0 / rceq=’blurCplx^(1-qComp)’ / qcomp=0.60 / qpmin=10 / qpmax=51 / qpstep=4 / cplxblur=20.0 / qblur=0.5 / ip_ratio=1.40 / pb_ratio=1.30
Language : English
Default : Yes
Forced : No

Audio #1
ID : 2
Format : AC-3
Format/Info : Audio Coding 3
Commercial name : Dolby Digital
Codec ID : A_AC3
Duration : 1 h 30 min
Bit rate mode : Constant
Bit rate : 448 kb/s
Channel(s) : 6 channels
Channel layout : L R C LFE Ls Rs
Sampling rate : 48.0 kHz
Frame rate : 31.250 FPS (1536 SPF)
Bit depth : 16 bits
Compression mode : Lossy
Stream size : 290 MiB (6%)
Language : English
Service kind : Complete Main
Default : Yes
Forced : Yes

Audio #2
ID : 3
Format : AC-3
Format/Info : Audio Coding 3
Commercial name : Dolby Digital
Codec ID : A_AC3
Duration : 1 h 30 min
Bit rate mode : Constant
Bit rate : 448 kb/s
Channel(s) : 6 channels
Channel layout : L R C LFE Ls Rs
Sampling rate : 48.0 kHz
Frame rate : 31.250 FPS (1536 SPF)
Bit depth : 16 bits
Compression mode : Lossy
Stream size : 290 MiB (6%)
Language : Thai
Service kind : Complete Main
Default : No
Forced : No

Text #1
ID : 4
Format : VobSub
Codec ID : S_VOBSUB
Codec ID/Info : Picture based subtitle format used on DVDs
Language : Thai
Default : Yes
Forced : Yes

Text #2
ID : 5
Format : VobSub
Codec ID : S_VOBSUB
Codec ID/Info : Picture based subtitle format used on DVDs
Language : Thai
Default : No
Forced : No

Text #3
ID : 6
Format : UTF-8
Codec ID : S_TEXT/UTF8
Codec ID/Info : UTF-8 Plain Text
Language : English
Default : No
Forced : No

DOWNLOAD


PART01 |||| PART02 |||| PART03 |||| PART04 |||| PART05

PART01 |||| PART02 |||| PART03 |||| PART04 |||| PART05

PART01 |||| PART02 |||| PART03 |||| PART04 |||| PART05

PART01 |||| PART02 |||| PART03 |||| PART04 |||| PART05


Leave A Reply

Your email address will not be published.

%d bloggers like this: