[MINI-HD] Jazz the Dog (2017) ดอกฟ้า_หมาแจ๊ส [1080p] [พากย์ไทย 2.0] [MP4] [เสียงไทย มาสเตอร์] [PANDAFILE]

0

Jazz the Dog (2017) ดอกฟ้า_หมาแจ๊ส

โหลดหนัง Jazz the Dog (2017) ดอกฟ้า_หมาแจ๊ส

Jazz the Dog (2017) | 30 November 2017 (Thailand)
Summary: Add a Plot »
Countries: ThailandLanguages: English

เรื่องย่อ Jazz the Dog (2017) ดอกฟ้า_หมาแจ๊ส

เมื่อฝีมือไม่ตอบโจทย์ความดัง หมา (ผดุง ทรงแสง) เลยตัดสินใจทำศัลยกรรมกับ ขจร (กฤษณ์ บุญญะรัง)กะเทยเพื่อนรักสมัยเด็กแต่เมื่อผลลัพธ์ไม่เป็นดังคาด ขจรจึงจัดฉากให้หมากลายเป็นซูเปอร์สตาร์ในโลกโซเชียลเพื่อหวังให้ได้ใจชายที่เขาหลงรักแต่ในใจของหมามีแค่เฟื่องฟ้า(สุธีวัน ทวีสิน)สาวที่หมาหลงรักมานาน โชคร้ายที่เธอต้องตายจากอุบัติเหตุรถชนทำให้หมาได้แค่เดินทางไปงานศพของเธอที่บ้านเกิด แต่พอถึงท่าเรือลุงโมก (ไพฑูรย์ พุ่มรัตน์) กลับบอกว่าเขาเป็นเพียงคนเดียวที่จะย้อนอดีตเพื่อแก้ไขสิ่งที่ผิดพลาดและช่วยชีวิตเฟื่องฟ้าได้แต่ห้ามทำมิติเวลายุ่งเหยิงด้วยการพูดคุยกับใคร แล้วสุดท้ายเขาจะทำสำเร็จหรือไม่!!

Complete name :  Jazz.The.Dog.2017.1080p.WEB-DL.AAC.x264.One2loadup.com.mp4
Format : MPEG-4
Format profile : Base Media
Codec ID : isom (isom/iso2/avc1/mp41)
File size : 1.34 GiB
Duration : 1 h 22 min
Overall bit rate : 2 333 kb/s
Writing application : Lavf58.26.101

Video
ID : 1
Format : AVC
Format/Info : Advanced Video Codec
Format profile : [email protected]
Format settings : CABAC / 4 Ref Frames
Format settings, CABAC : Yes
Format settings, ReFrames : 4 frames
Codec ID : avc1
Codec ID/Info : Advanced Video Coding
Duration : 1 h 22 min
Bit rate : 2 200 kb/s
Width : 1 920 pixels
Height : 1 080 pixels
Display aspect ratio : 16:9
Frame rate mode : Constant
Frame rate : 24.000 FPS
Color space : YUV
Chroma subsampling : 4:2:0
Bit depth : 8 bits
Scan type : Progressive
Bits/(Pixel*Frame) : 0.044
Stream size : 1.26 GiB (94%)
Writing library : x264 core 157
Encoding settings : cabac=1 / ref=1 / deblock=1:0:0 / analyse=0x3:0x3 / me=dia / subme=1 / psy=1 / psy_rd=1.00:0.00 / mixed_ref=0 / me_range=16 / chroma_me=1 / trellis=0 / 8x8dct=1 / cqm=0 / deadzone=21,11 / fast_pskip=1 / chroma_qp_offset=0 / threads=7 / lookahead_threads=1 / sliced_threads=0 / nr=0 / decimate=1 / interlaced=0 / bluray_compat=0 / constrained_intra=0 / bframes=3 / b_pyramid=2 / b_adapt=1 / b_bias=0 / direct=1 / weightb=1 / open_gop=0 / weightp=1 / keyint=250 / keyint_min=24 / scenecut=40 / intra_refresh=0 / rc=2pass / mbtree=0 / bitrate=2200 / ratetol=1.0 / qcomp=0.60 / qpmin=0 / qpmax=69 / qpstep=4 / cplxblur=20.0 / qblur=0.5 / ip_ratio=1.40 / pb_ratio=1.30 / aq=1:1.00
Codec configuration box : avcC

Audio
ID : 2
Format : AAC LC
Format/Info : Advanced Audio Codec Low Complexity
Codec ID : mp4a-40-2
Duration : 1 h 22 min
Duration_LastFrame : -5 ms
Bit rate mode : Constant
Bit rate : 128 kb/s
Channel(s) : 2 channels
Channel layout : L R
Sampling rate : 48.0 kHz
Frame rate : 46.875 FPS (1024 SPF)
Compression mode : Lossy
Stream size : 75.1 MiB (5%)
Default : Yes
Alternate group : 1

DOWNLOAD


PART01 |||| PART02

PART01 |||| PART02

PART01 |||| PART02

PART01 |||| PART02

PART01 |||| PART02



แจ้งหนังเสีย หรือโหลดไม่ได้ ทั้งลิ้งฟรีและ vip สามารถกดที่รูปด้านบนนี้ได้เลย

: Disable Comments
%d bloggers like this: