[MINI-HD] James Bond 007 : Spectre (2015) 007 พยัคฆ์ร้ายเดิมพันระห่ำโลก [1080p] [พากย์ไทย DTS + เสียงอังกฤษ 5.1] [บรรยายไทย + อังกฤษ] [เสียงไทย + ซับไทย] [PANDAFILE]

8

โหลดหนัง James Bond 007 : Spectre (2015) 007 พยัคฆ์ร้ายเดิมพันระห่ำโลก

Spectre | November 6, 2015 (United States) Summary: A cryptic message from James Bond's past sends him on a trail to uncover the existence of a sinister organisation named SPECTRE. With a new threat dawning, Bond learns the terrible truth abo... Read all
Countries: United Kingdom, United StatesLanguages: English, Spanish, Italian, German, French

เรื่องย่อ James Bond 007 : Spectre (2015) 007 พยัคฆ์ร้ายเดิมพันระห่ำโลก

หลังจากที่บอนด์ได้รับข้อความปริศนาจากอดีต เขาจึงจำเป็นที่จะต้องตามล่าหาความจริง จนได้ค้นพบกับองค์กรลับสุดร้าย ในระหว่างที่ เอ็ม ต้องปกป้ององค์กรสายลับของ บอนด์ จากปัญหาทางการเมือง บอนด์ จึงต้องเข้าไปค้นหาความจริงและทำให้เขาได้พบกับความชั่วร้ายภายใต้องค์กร SPECTRE

Complete name : [MINI-HD]_Spectre.2015.1080p.SuperHQ.THAIDTS.x264.One2loadup.com.mkv
Format : Matroska
Format version : Version 4 / Version 2
File size : 4.77 GiB
Duration : 2 h 28 min
Overall bit rate : 4 606 kb/s
Movie name : [MINI-HD]_Spectre.2015.1080p.SuperHQ.THAIDTS.x264.One2loadup.com
Encoded date : UTC 2016-01-20 01:29:18
Writing application : mkvmerge v8.1.0 (‘Psychedelic Postcard’) 32bit
Writing library : libebml v1.3.1 + libmatroska v1.4.2

Video
ID : 1
Format : AVC
Format/Info : Advanced Video Codec
Format profile : [email protected]
Format settings, CABAC : Yes
Format settings, RefFrames : 4 frames
Codec ID : V_MPEG4/ISO/AVC
Duration : 2 h 28 min
Bit rate : 3 000 kb/s
Width : 1 920 pixels
Height : 808 pixels
Display aspect ratio : 2.40:1
Frame rate mode : Constant
Frame rate : 23.976 FPS
Color space : YUV
Chroma subsampling : 4:2:0
Bit depth : 8 bits
Scan type : Progressive
Bits/(Pixel*Frame) : 0.081
Stream size : 3.10 GiB (65%)
Title : [MINI-HD]_Spectre.2015.1080p.SuperHQ.THAIDTS.x264.One2loadup.com
Writing library : x264 core 146 r2538 121396c
Encoding settings : cabac=1 / ref=4 / deblock=1:-3:-3 / analyse=0x3:0x113 / me=umh / subme=11 / psy=1 / psy_rd=1.00:0.00 / mixed_ref=1 / me_range=64 / chroma_me=1 / trellis=2 / 8x8dct=1 / cqm=0 / deadzone=21,11 / fast_pskip=1 / chroma_qp_offset=-2 / threads=24 / lookahead_threads=2 / sliced_threads=0 / nr=0 / decimate=1 / interlaced=0 / bluray_compat=0 / constrained_intra=0 / bframes=4 / b_pyramid=2 / b_adapt=1 / b_bias=0 / direct=1 / weightb=1 / open_gop=0 / weightp=2 / keyint=250 / keyint_min=23 / scenecut=40 / intra_refresh=0 / rc_lookahead=120 / rc=2pass / mbtree=1 / bitrate=3000 / ratetol=1.0 / qcomp=0.60 / qpmin=0 / qpmax=69 / qpstep=4 / cplxblur=20.0 / qblur=0.5 / vbv_maxrate=99999 / vbv_bufsize=99999 / nal_hrd=none / filler=0 / ip_ratio=1.40 / aq=1:1.00
Language : English
Default : Yes
Forced : No

Audio #1
ID : 2
Format : DTS
Format/Info : Digital Theater Systems
Mode : 16
Format settings, Endianness : Big
Codec ID : A_DTS
Duration : 2 h 28 min
Bit rate mode : Constant
Bit rate : 768 kb/s
Channel(s) : 6 channels
Channel positions : Front: L C R, Side: L R, LFE
Sampling rate : 48.0 kHz
Frame rate : 93.750 FPS (512 SPF)
Bit depth : 24 bits
Compression mode : Lossy
Stream size : 814 MiB (17%)
Language : Thai
Default : Yes
Forced : Yes

Audio #2
ID : 3
Format : DTS
Format/Info : Digital Theater Systems
Mode : 16
Format settings, Endianness : Big
Codec ID : A_DTS
Duration : 2 h 28 min
Bit rate mode : Constant
Bit rate : 755 kb/s
Channel(s) : 6 channels
Channel positions : Front: L C R, Side: L R, LFE
Sampling rate : 48.0 kHz
Frame rate : 93.750 FPS (512 SPF)
Bit depth : 24 bits
Compression mode : Lossy
Stream size : 799 MiB (16%)
Language : English
Default : No
Forced : No

Text #1
ID : 4
Format : VobSub
Codec ID : S_VOBSUB
Codec ID/Info : Picture based subtitle format used on DVDs
Title : 1080P FORCED FOR AUDIO THAI
Language : Thai
Default : Yes
Forced : Yes

Text #2
ID : 5
Format : VobSub
Codec ID : S_VOBSUB
Codec ID/Info : Picture based subtitle format used on DVDs
Title : 1080P TSA
Language : Thai
Default : No
Forced : No

Text #3
ID : 6
Format : VobSub
Codec ID : S_VOBSUB
Codec ID/Info : Picture based subtitle format used on DVDs
Title : 1080P TSA YELLOW
Language : Thai
Default : No
Forced : No

Text #4
ID : 7
Format : VobSub
Codec ID : S_VOBSUB
Codec ID/Info : Picture based subtitle format used on DVDs
Title : 1080P TSA UNDER
Language : Thai
Default : No
Forced : No

Text #5
ID : 8
Format : VobSub
Codec ID : S_VOBSUB
Codec ID/Info : Picture based subtitle format used on DVDs
Title : 1080P
Language : Thai
Default : No
Forced : No

Text #6
ID : 9
Format : VobSub
Codec ID : S_VOBSUB
Codec ID/Info : Picture based subtitle format used on DVDs
Title : 480P
Language : Thai
Default : No
Forced : No

Text #7
ID : 10
Format : VobSub
Codec ID : S_VOBSUB
Codec ID/Info : Picture based subtitle format used on DVDs
Title : 1080P
Language : English
Default : No
Forced : No

Text #8
ID : 11
Format : UTF-8
Codec ID : S_TEXT/UTF8
Codec ID/Info : UTF-8 Plain Text
Title : SRT FORCED FOR THAI AUDIO
Language : Thai
Default : No
Forced : No

Text #9
ID : 12
Format : UTF-8
Codec ID : S_TEXT/UTF8
Codec ID/Info : UTF-8 Plain Text
Title : SRT OCR
Language : Thai
Default : No
Forced : No

Text #10
ID : 13
Format : UTF-8
Codec ID : S_TEXT/UTF8
Codec ID/Info : UTF-8 Plain Text
Title : SRT
Language : English
Default : No
Forced : No

Text #11
ID : 14
Format : PGS
Codec ID : S_HDMV/PGS
Codec ID/Info : Picture based subtitle format used on BDs/HD-DVDs
Title : TSA FORCED FOR THAI AUDIO
Language : Thai
Default : No
Forced : No

Text #12
ID : 15
Format : PGS
Codec ID : S_HDMV/PGS
Codec ID/Info : Picture based subtitle format used on BDs/HD-DVDs
Title : TSA
Language : Thai
Default : No
Forced : No

Text #13
ID : 16
Format : PGS
Codec ID : S_HDMV/PGS
Codec ID/Info : Picture based subtitle format used on BDs/HD-DVDs
Title : TSA UNDER
Language : Thai
Default : No
Forced : No

Text #14
ID : 17
Format : PGS
Codec ID : S_HDMV/PGS
Codec ID/Info : Picture based subtitle format used on BDs/HD-DVDs
Title : AS
Language : Thai
Default : No
Forced : No

Menu
00:00:00.000 : en:00:00:00.000
00:06:09.119 : en:00:06:09.119
00:13:04.784 : en:00:13:04.784
00:18:58.471 : en:00:18:58.471
00:24:46.777 : en:00:24:46.777
00:28:04.057 : en:00:28:04.057
00:32:15.559 : en:00:32:15.559
00:36:58.591 : en:00:36:58.591
00:41:56.639 : en:00:41:56.639
00:46:13.145 : en:00:46:13.145
00:50:51.924 : en:00:50:51.924
00:53:43.220 : en:00:53:43.220
01:00:21.368 : en:01:00:21.368
01:06:48.213 : en:01:06:48.213
01:10:58.963 : en:01:10:58.963
01:15:14.093 : en:01:15:14.093
01:18:55.648 : en:01:18:55.648
01:26:11.041 : en:01:26:11.041
01:29:40.000 : en:01:29:40.000
01:36:43.548 : en:01:36:43.548
01:41:44.390 : en:01:41:44.390
01:49:06.415 : en:01:49:06.415
01:55:52.821 : en:01:55:52.821
01:59:39.214 : en:01:59:39.214
02:04:19.744 : en:02:04:19.744
02:09:28.511 : en:02:09:28.511
02:14:05.663 : en:02:14:05.663
02:19:42.374 : en:02:19:42.374

DOWNLOAD


PART01 |||| PART02 |||| PART03 |||| PART04 |||| PART05

PART01 |||| PART02 |||| PART03 |||| PART04 |||| PART05

PART01 |||| PART02 |||| PART03 |||| PART04 |||| PART05

PART01 |||| PART02 |||| PART03 |||| PART04 |||| PART05

PART01 |||| PART02 |||| PART03 |||| PART04 |||| PART05


8 Comments
  1. Panitan Muenduang
    Panitan Muenduang says

    ช่วยอัพไฟล์ของ Openload ให้หน่อยได้ไหมคับ

    1. Admin
      Admin says

      โหลดได้ปกติ นิ

  2. Narabodee Oat says

    ไฟล์ upfile.info เสียครับ

    1. Admin
      Admin says

      เสียยังไงหว่าก็โหลดได้ปกตินิ

  3. Vagoals
    Vagoals says

    ไม่มีเจมส์ บอนด์ ภาคที่ เพียร์ซ บรอสแนน แสดงมั้งหรอครับ

    1. Admin
      Admin says

      เหมือนมีคนขอเข้ามาแล้วฮ๊ะอยู่ในคิวขอหนังนะฮ๊ะ ยังไม่ได้ลง

  4. Natthapon Boonpok
    Natthapon Boonpok says

    แอดครับ อัพ BayFiles ใหม่หน่อยฮะ ขอบคุณฮะ

    1. Admin
      Admin says

      แก้ไขเรียบร้อยฮ๊ะ

Leave A Reply

อีเมล์ของคุณจะไม่แสดงให้เห็น Your email address will not be published.

%d bloggers like this: