[MINI-HD] Hollow Man (2000) มนุษย์ไร้เงา ภาค 1 [1080p] [พากย์ไทย 5.1 + เสียงอังกฤษ 5.1] [บรรยายไทย + อังกฤษ] [เสียงไทย + ซับไทย] [DOSYAUPLOAD]

0

โหลดหนัง Hollow Man (2000) มนุษย์ไร้เงา ภาค 1

Hollow Man (2000) 112min | Action, Horror, Sci-Fi, Thriller | August 4, 2000 (United States) Summary: A brilliant scientist's discovery renders him invisible, but transforms him into an omnipotent, dangerous megalomaniac.
Countries: United States, GermanyLanguages: English

เรื่องย่อ Hollow Man (2000) มนุษย์ไร้เงา ภาค 1

เวอร์โฮเวน นักวิทยาศาสตร์ผู้เปี่ยมความสามารถ เซบาสเตียน เคน ได้พัฒนาเซรุ่มที่จะทำให้เกิดการล่องหนอย่างสมบูรณ์แบบขึ้นมา และการกลายร่างอันเหลือเชื่อของเขานี้ก็ส่งผลให้เขามีพลังอำนาจอันคาดไม่ถึง ซึ่งดูจะทำลายหลักศีลธรรมจรรยาใดๆ ในจิตใจของเขาไปจนหมด และนำไปสู่บทสรุปอันแสนดุดันและน่าหวาดกลัวเป็นอย่างยิ่ง ดรามาอันผิดธรรมดาเรื่องนี้ มีศูนย์กลางอยู่ที่นักวิทยาศาสตร์หนุ่มเจ้าเสน่ห์ผู้ปราดเปรื่องและโอหัง ยิ่งคนนี้ ซึ่งเป็นหัวหน้าโครงการทดลองลับสุดยอดของรัฐบาลสหรัฐอเมริกาที่จะไขความลับ ในการล่องหน เมื่อสูตรที่พวกเขาคิดค้นขึ้นมานั้นประสบความสำเร็จเป็นอย่างดีกับสัตว์ หลายๆ ชนิด เคนจึงขัดคำสั่งของเพนตากอน และทดลองมันกับตัวเขาเอง โชคร้ายที่การเดิมพันอันแสนอันตรายนี้เกิดผิดพลาดขึ้นมาอย่างมหันต์ เนื่องจากระบวนการนี้ไม่สามารถย้อนกลับได้ เคน มนุษย์ล่องหน และสองเพื่อนร่วมงานของเขา ลินดา แมกเคย์ และ แมตธิว เคนซิงตัน พยายามกันอย่างสุดความสามารถในการคืนร่างของเคน แต่เคนที่ล่องหนไปแล้วเป็นคนที่มีความต้องการอำนาจอยู่แล้ว เขาปลื้มในพลังแบบใหม่ของเขานี้เป็นอย่างมาก และห้องทดลองลับนี้จึงกลายมาเป็นเสมือนบ้านของเขา ขณะที่บรรดานักวิทยาศาสตร์รู้แล้วว่าผู้นำกลุ่มของพวกเขานั้นมองว่าพวกเขา เป็นอันตรายต่อการดำรงอยู่ของเขาไปเสียแล้ว

Complete name : [MINI-HD]_Hollow.Man.2000.1080p.BrRip.AC3.x264.One2loadup.com.mkv
Format : Matroska
Format version : Version 4
File size : 3.06 GiB
Duration : 1 h 59 min
Overall bit rate : 3 670 kb/s
Movie name : [MINI-HD]_Hollow.Man.2000.1080p.BrRip.AC3.x264.One2loadup.com
Encoded date : UTC 2015-05-02 02:01:00
Writing application : mkvmerge v7.8.0 (‘River Man’) 32bit built on Mar 27 2015 16:18:02
Writing library : libebml v1.3.1 + libmatroska v1.4.2
Cover : Yes
Attachments : cover_land.png / cover.png

Video
ID : 1
Format : AVC
Format/Info : Advanced Video Codec
Format profile : [email protected]
Format settings : CABAC / 4 Ref Frames
Format settings, CABAC : Yes
Format settings, Reference : 4 frames
Codec ID : V_MPEG4/ISO/AVC
Duration : 1 h 59 min
Bit rate : 2 500 kb/s
Width : 1 920 pixels
Height : 1 040 pixels
Display aspect ratio : 1.85:1
Frame rate mode : Constant
Frame rate : 23.976 (23976/1000) FPS
Color space : YUV
Chroma subsampling : 4:2:0
Bit depth : 8 bits
Scan type : Progressive
Bits/(Pixel*Frame) : 0.052
Stream size : 2.09 GiB (68%)
Title : [MINI-HD]_Hollow.Man.2000.1080p.BrRip.AC3.x264.One2loadup.com
Writing library : x264 core 142 r2479kMod dd79a61
Encoding settings : cabac=1 / ref=4 / deblock=1:-1:-1 / analyse=0x3:0x113 / me=umh / subme=9 / psy=1 / fade_compensate=0.00 / psy_rd=1.00:0.15 / mixed_ref=1 / me_range=24 / chroma_me=1 / trellis=2 / 8x8dct=1 / cqm=0 / deadzone=21,11 / fast_pskip=1 / chroma_qp_offset=-3 / threads=12 / lookahead_threads=4 / sliced_threads=0 / nr=0 / decimate=1 / interlaced=0 / bluray_compat=0 / constrained_intra=0 / fgo=0 / bframes=3 / b_pyramid=2 / b_adapt=1 / b_bias=0 / direct=1 / weightb=1 / open_gop=0 / weightp=2 / keyint=250 / keyint_min=25 / scenecut=40 / intra_refresh=0 / rc_lookahead=50 / rc=2pass / mbtree=1 / bitrate=2500 / ratetol=1.0 / qcomp=0.60 / qpmin=0 / qpmax=69 / qpstep=4 / cplxblur=20.0 / qblur=0.5 / vbv_maxrate=31250 / vbv_bufsize=31250 / nal_hrd=none / filler=0 / ip_ratio=1.40 / aq=3:1.00
Language : English
Default : Yes
Forced : No

Audio #1
ID : 2
Format : AC-3
Format/Info : Audio Coding 3
Commercial name : Dolby Digital
Codec ID : A_AC3
Duration : 1 h 59 min
Bit rate mode : Constant
Bit rate : 448 kb/s
Channel(s) : 6 channels
Channel layout : L R C LFE Ls Rs
Sampling rate : 48.0 kHz
Frame rate : 31.250 FPS (1536 SPF)
Compression mode : Lossy
Stream size : 382 MiB (12%)
Title : AC3 FIXED DVD MASER TO DC
Language : Thai
Service kind : Complete Main
Default : Yes
Forced : Yes

Audio #2
ID : 3
Format : AC-3
Format/Info : Audio Coding 3
Commercial name : Dolby Digital
Codec ID : A_AC3
Duration : 1 h 59 min
Bit rate mode : Constant
Bit rate : 640 kb/s
Channel(s) : 6 channels
Channel layout : L R C LFE Ls Rs
Sampling rate : 48.0 kHz
Frame rate : 31.250 FPS (1536 SPF)
Compression mode : Lossy
Stream size : 546 MiB (17%)
Title : AC3
Language : English
Service kind : Complete Main
Default : No
Forced : No

Text #1
ID : 4
Format : VobSub
Codec ID : S_VOBSUB
Codec ID/Info : Picture based subtitle format used on DVDs
Title : 1080P TSA
Language : Thai
Default : Yes
Forced : Yes

Text #2
ID : 5
Format : VobSub
Codec ID : S_VOBSUB
Codec ID/Info : Picture based subtitle format used on DVDs
Title : 1080P TSA YELLOW
Language : Thai
Default : No
Forced : No

Text #3
ID : 6
Format : VobSub
Codec ID : S_VOBSUB
Codec ID/Info : Picture based subtitle format used on DVDs
Title : 1080P AS
Language : Thai
Default : No
Forced : No

Text #4
ID : 7
Format : VobSub
Codec ID : S_VOBSUB
Codec ID/Info : Picture based subtitle format used on DVDs
Title : 480P TSA
Language : Thai
Default : No
Forced : No

Text #5
ID : 8
Format : PGS
Codec ID : S_HDMV/PGS
Codec ID/Info : Picture based subtitle format used on BDs/HD-DVDs
Title : TSA
Language : Thai
Default : No
Forced : No

Text #6
ID : 9
Format : PGS
Codec ID : S_HDMV/PGS
Codec ID/Info : Picture based subtitle format used on BDs/HD-DVDs
Title : AS
Language : Thai
Default : No
Forced : No

Text #7
ID : 10
Format : PGS
Codec ID : S_HDMV/PGS
Codec ID/Info : Picture based subtitle format used on BDs/HD-DVDs
Title : BD MASTER
Language : English
Default : No
Forced : No

DOWNLOAD


PART01 |||| PART02 |||| PART03 |||| PART04

PART01 |||| PART02 |||| PART03 |||| PART04

PART01 |||| PART02 |||| PART03 |||| PART04

PART01 |||| PART02 |||| PART03 |||| PART04

PART01 |||| PART02 |||| PART03 |||| PART04


Leave A Reply

อีเมล์ของคุณจะไม่แสดงให้เห็น Your email address will not be published.

%d bloggers like this: