[MINI-HD] Hollow Man 2 (2006) มนุษย์ไร้เงา ภาค 2 [1080p] [พากย์ไทย 5.1 + เสียงอังกฤษ 5.1] [บรรยายไทย + อังกฤษ] [เสียงไทย + ซับไทย] [DOSYAUPLOAD]

0

โหลดหนัง Hollow Man 2 (2006) มนุษย์ไร้เงา ภาค 2

Hollow Man II (2006) 91min | Action, Horror, Sci-Fi, Thriller | June 20, 2006 (Canada) Summary: A Seattle detective and a biologist are on the run from a dangerous invisible assassin gone rogue.
Countries: United StatesLanguages: English

เรื่องย่อ Hollow Man 2 (2006) มนุษย์ไร้เงา ภาค 2

Michael Griffin ทหารนักฆ่าที่กลายมาเป็นฆาตรกรบ้าคลั่ง ฆ่าทุกคนที่เกี่ยวข้องกับการทดลองเพื่อต้องการเซรุ่มรักษาสภาพร่างกายของเขา เนื่องจากเซรุ่มที่ฉีดเข้าไปเพื่อให้กลายเป็นมนุษย์ ล่องหนนั้น เริ่มทำให้ร่างกายของ Griffin เจ็บปวดอย่างแสนสาหัสมากขึ้นทุกที และนักชีวะวิทยาคนเดียวที่สามารถรักษา Griffin ได้ก็คือ Maggie Dalton สถานการณ์ได้เปลี่ยนแปลงไป เมื่อทางรัฐบาลต้องการสังหารมนุษย์ล่องหน พวกเขาจึงได้ใช้ Maggie เป็นตัวล่อให้ Griffin ติดกับ ทำให้ Maggie ต้องหนีจากอันตรายใหญ่หลวงที่กำลังจะเกิดขึ้น Maggie ได้พบกับนักสืบหนุ่มอย่าง Frank Turner ทั้งนี้ Turner และ Maggie จึงต้องร่วมมือกันหาทางหนีให้หลุดพ้นกับเจ้ามนุษย์ล่องหน ทางเดียวที่ทำให้ Turner เอาชนะเจ้า Griffin ได้คือ เขาต้องกลายร่างเป็นมนุษย์ล่องหนเช่นกัน อะไรจะเกิดขึ้นเมื่อมนุษย์ล่องหนสองตัวมาเผชิญหน้ากันจะเป็นอย่างไร

Complete name : [MINI-HD]_Hollow.Man.2.2006.1080p.BrRip.AC3.x264.One2loadup.com.mkv
Format : Matroska
Format version : Version 4
File size : 2.35 GiB
Duration : 1 h 31 min
Overall bit rate : 3 690 kb/s
Movie name : [MINI-HD]_Hollow.Man.2.2006.1080p.BrRip.AC3.x264.One2loadup.com
Encoded date : UTC 2015-05-02 02:57:52
Writing application : mkvmerge v7.8.0 (‘River Man’) 32bit built on Mar 27 2015 16:18:02
Writing library : libebml v1.3.1 + libmatroska v1.4.2
Cover : Yes
Attachments : cover_land.png / cover.png

Video
ID : 1
Format : AVC
Format/Info : Advanced Video Codec
Format profile : [email protected]
Format settings : CABAC / 4 Ref Frames
Format settings, CABAC : Yes
Format settings, Reference : 4 frames
Codec ID : V_MPEG4/ISO/AVC
Duration : 1 h 31 min
Bit rate : 2 500 kb/s
Width : 1 920 pixels
Height : 816 pixels
Display aspect ratio : 2.35:1
Frame rate mode : Constant
Frame rate : 23.976 (23976/1000) FPS
Color space : YUV
Chroma subsampling : 4:2:0
Bit depth : 8 bits
Scan type : Progressive
Bits/(Pixel*Frame) : 0.067
Stream size : 1.61 GiB (69%)
Title : [MINI-HD]_Hollow.Man.2.2006.1080p.BrRip.AC3.x264.One2loadup.com
Writing library : x264 core 142 r2453kMod ea0ca51
Encoding settings : cabac=1 / ref=4 / deblock=1:-1:-1 / analyse=0x3:0x113 / me=umh / subme=9 / psy=1 / fade_compensate=0.00 / psy_rd=1.00:0.15 / mixed_ref=1 / me_range=24 / chroma_me=1 / trellis=2 / 8x8dct=1 / cqm=0 / deadzone=21,11 / fast_pskip=1 / chroma_qp_offset=-3 / threads=12 / lookahead_threads=4 / sliced_threads=0 / nr=0 / decimate=1 / interlaced=0 / bluray_compat=0 / constrained_intra=0 / fgo=0 / bframes=3 / b_pyramid=2 / b_adapt=1 / b_bias=0 / direct=1 / weightb=1 / open_gop=0 / weightp=2 / keyint=250 / keyint_min=25 / scenecut=40 / intra_refresh=0 / rc_lookahead=50 / rc=2pass / mbtree=1 / bitrate=2500 / ratetol=1.0 / qcomp=0.60 / qpmin=0 / qpmax=69 / qpstep=4 / cplxblur=20.0 / qblur=0.5 / vbv_maxrate=31250 / vbv_bufsize=31250 / nal_hrd=none / filler=0 / ip_ratio=1.40 / aq=3:1.00
Language : English
Default : Yes
Forced : No

Audio #1
ID : 2
Format : AC-3
Format/Info : Audio Coding 3
Commercial name : Dolby Digital
Codec ID : A_AC3
Duration : 1 h 31 min
Bit rate mode : Constant
Bit rate : 448 kb/s
Channel(s) : 6 channels
Channel layout : L R C LFE Ls Rs
Sampling rate : 48.0 kHz
Frame rate : 31.250 FPS (1536 SPF)
Compression mode : Lossy
Stream size : 293 MiB (12%)
Title : AC3 FIXED DVD
Language : Thai
Service kind : Complete Main
Default : Yes
Forced : Yes

Audio #2
ID : 3
Format : AC-3
Format/Info : Audio Coding 3
Commercial name : Dolby Digital
Codec ID : A_AC3
Duration : 1 h 31 min
Bit rate mode : Constant
Bit rate : 640 kb/s
Channel(s) : 6 channels
Channel layout : L R C LFE Ls Rs
Sampling rate : 48.0 kHz
Frame rate : 31.250 FPS (1536 SPF)
Compression mode : Lossy
Stream size : 418 MiB (17%)
Title : AC3
Language : English
Service kind : Complete Main
Default : No
Forced : No

Text #1
ID : 4
Format : VobSub
Codec ID : S_VOBSUB
Codec ID/Info : Picture based subtitle format used on DVDs
Title : 1080P TSA
Language : Thai
Default : Yes
Forced : Yes

Text #2
ID : 5
Format : VobSub
Codec ID : S_VOBSUB
Codec ID/Info : Picture based subtitle format used on DVDs
Title : 1080P TSA UNDER
Language : Thai
Default : No
Forced : No

Text #3
ID : 6
Format : VobSub
Codec ID : S_VOBSUB
Codec ID/Info : Picture based subtitle format used on DVDs
Title : 1080P YELLOW
Language : Thai
Default : No
Forced : No

Text #4
ID : 7
Format : VobSub
Codec ID : S_VOBSUB
Codec ID/Info : Picture based subtitle format used on DVDs
Title : 1080P AS
Language : Thai
Default : No
Forced : No

Text #5
ID : 8
Format : VobSub
Codec ID : S_VOBSUB
Codec ID/Info : Picture based subtitle format used on DVDs
Title : 480P TSA
Language : Thai
Default : No
Forced : No

Text #6
ID : 9
Format : UTF-8
Codec ID : S_TEXT/UTF8
Codec ID/Info : UTF-8 Plain Text
Title : SRT OCR FIXED
Language : Thai
Default : No
Forced : No

Text #7
ID : 10
Format : UTF-8
Codec ID : S_TEXT/UTF8
Codec ID/Info : UTF-8 Plain Text
Title : SRT
Language : English
Default : No
Forced : No

Text #8
ID : 11
Format : PGS
Codec ID : S_HDMV/PGS
Codec ID/Info : Picture based subtitle format used on BDs/HD-DVDs
Title : TSA
Language : Thai
Default : No
Forced : No

Text #9
ID : 12
Format : PGS
Codec ID : S_HDMV/PGS
Codec ID/Info : Picture based subtitle format used on BDs/HD-DVDs
Title : TSA UNDER
Language : Thai
Default : No
Forced : No

Text #10
ID : 13
Format : PGS
Codec ID : S_HDMV/PGS
Codec ID/Info : Picture based subtitle format used on BDs/HD-DVDs
Title : AS
Language : Thai
Default : No
Forced : No

DOWNLOAD


PART01 |||| PART02 |||| PART03

PART01 |||| PART02 |||| PART03

PART01 |||| PART02 |||| PART03

PART01 |||| PART02 |||| PART03

PART01 |||| PART02 |||| PART03


Leave A Reply

อีเมล์ของคุณจะไม่แสดงให้เห็น Your email address will not be published.

%d bloggers like this: