[MINI-HD] Hello Stranger (2010) กวน มึน โฮ [1080p] [พากย์ไทย 2.0] [บรรยายไทย + อังกฤษ] [หนังไทย] [เสียงไทย + ซับไทย] [PANDAFILE]

0

โหลดหนัง Hello Stranger (2010) กวน มึน โฮ

Hello Stranger (2010) 2h 10min | Comedy, Romance | 19 August 2010 (Thailand) Summary: A couple who met in South Korea. They had fun together but when they both fell in love, everything changed.
Countries: ThailandLanguages: Thai, Korean

เรื่องย่อ Hello Stranger (2010) กวน มึน โฮ

ชายหนุ่มหญิงสาวคู่หนึ่งก็เลือกที่จะไปเที่ยวเกาหลีด้วยเหตุผลที่ไม่ซ้ำใคร ทั้งคู่ไม่ได้ไปด้วยกัน แต่กลับพร้อมกัน…ชายหนุ่ม (เต๋อ – ฉันทวิชช์ ธนะเสวี) ผู้ชายที่จะไปย่ำแดนกิมจิด้วยรองเท้าแตะคีบ เสื้อยืดย้วยๆ บวกกางเกงขาสั้น เมื่อถึงเกาหลี ชายหนุ่ม ต้องจำใจตามกรุ๊ปทัวร์ไปยังสถานที่ต่างๆ แบบเซ็งสุดขีด คืนนั้นชายหนุ่มเลยต้องพึ่งเหล้าโซจูย้อมใจ แต่เรื่องกลับกลายเป็นว่า เขามาเมาสลบอยู่หน้าเกสท์เฮาส์แห่งหนึ่งในชุดคลุมอาบน้ำโรงแรม!เช้าวันรุ่งขึ้น ชายหนุ่มตื่นขึ้นเพราะ หญิงสาว (หนูนา – หนึ่งธิดา โสภณ) ที่ยืนอยู่ตรงนั้นร้องโวยวาย เพราะต้องการทวงเสื้อหนาวที่เธอเสียสละให้เขาใช้คลุมกายคืน ชายหนุ่มผู้หลงทิศจึงบังคับแกมตีมึนให้หญิงสาวพาไปส่งที่โรงแรม แต่เพราะหลงทาง ชายหนุ่มจึงตกรถพลาดขบวนทัวร์ จนต้องมาติดสอยห้อยตามหญิงสาวที่ตั้งใจมาทัวร์เดี่ยวตะลุยโลเกชั่นซีรีย์สุดฮิตของเกาหลีแทนทั้งสองตกลงกันว่าจะไปเที่ยวด้วยกัน โดยไม่ต้องรู้จักกัน ไม่รู้ชื่อ ไม่รู้ข้อมูลส่วนตัว เป็นแค่คนแปลกหน้าสองคนที่ไปเที่ยวด้วยกัน เพื่อจะได้เป็นตัวของตัวเองกันแบบสุดๆ เขาและเธอ คนสองคนที่ไม่รู้จัก แต่เที่ยวด้วยกัน กินพร้อมกัน นอนห้องเดียวกัน คุยกันได้ทุกเรื่อง แลกความลับที่สุดในชีวิตซึ่งกันและกันเขาและเธอ คนแปลกหน้าที่รู้ใจกันดีที่สุด เขาและเธอ คนสองคนที่ไม่รู้จัก แต่รักกัน…

Complete name : [MINI-HD]_Hello.Stranger.2010.1080p.NF.WEB-DL.AAC.x264.One2loadup.com.mkv
Format : Matroska
Format version : Version 4
File size : 4.79 GiB
Duration : 2 h 2 min
Overall bit rate : 5 621 kb/s
Movie name : [MINI-HD]_Hello.Stranger.2010.1080p.NF.WEB-DL.AAC.x264.One2loadup.com
Encoded date : UTC 2019-09-22 06:36:48
Writing application : mkvmerge v24.0.0 (‘Beyond The Pale’) 64-bit
Writing library : libebml v1.3.6 + libmatroska v1.4.9

Video
ID : 1
Format : AVC
Format/Info : Advanced Video Codec
Format profile : [email protected]
Format settings : CABAC / 3 Ref Frames
Format settings, CABAC : Yes
Format settings, ReFrames : 3 frames
Codec ID : V_MPEG4/ISO/AVC
Duration : 2 h 2 min
Bit rate : 5 476 kb/s
Width : 1 920 pixels
Height : 1 080 pixels
Display aspect ratio : 16:9
Frame rate mode : Constant
Frame rate : 25.000 FPS
Color space : YUV
Chroma subsampling : 4:2:0
Bit depth : 8 bits
Scan type : Progressive
Bits/(Pixel*Frame) : 0.106
Stream size : 4.67 GiB (97%)
Title : [MINI-HD]_Hello.Stranger.2010.1080p.NF.WEB-DL.AAC.x264.One2loadup.com
Default : Yes
Forced : No
Writing library : x264 core 148 r2722 1b0121b

Audio
ID : 2
Format : AAC LC SBR
Format/Info : Advanced Audio Codec Low Complexity with Spectral Band Replication
Commercial name : HE-AAC
Format settings : Explicit
Codec ID : A_AAC-2
Duration : 2 h 2 min
Bit rate : 96.0 kb/s
Channel(s) : 2 channels
Channel layout : L R
Sampling rate : 48.0 kHz
Frame rate : 23.438 FPS (2048 SPF)
Compression mode : Lossy
Stream size : 83.8 MiB (2%)
Title : TH AAC
Language : Thai
Default : Yes
Forced : No

Text #1
ID : 3
Format : PGS
Muxing mode : zlib
Codec ID : S_HDMV/PGS
Codec ID/Info : Picture based subtitle format used on BDs/HD-DVDs
Duration : 2 h 1 min
Bit rate : 28.7 kb/s
Count of elements : 4442
Stream size : 24.9 MiB (1%)
Title : TH_PGS
Language : Thai
Default : Yes
Forced : No

Text #2
ID : 4
Format : VobSub
Muxing mode : zlib
Codec ID : S_VOBSUB
Codec ID/Info : Picture based subtitle format used on DVDs
Duration : 2 h 1 min
Bit rate : 13.3 kb/s
Count of elements : 2218
Stream size : 11.5 MiB (0%)
Title : TH_VOBSUB
Language : Thai
Default : No
Forced : No

Text #3
ID : 5
Format : VobSub
Muxing mode : zlib
Codec ID : S_VOBSUB
Codec ID/Info : Picture based subtitle format used on DVDs
Duration : 2 h 1 min
Bit rate : 13.3 kb/s
Count of elements : 2218
Stream size : 11.5 MiB (0%)
Title : TH_VOBSUB_YELLOW
Language : Thai
Default : No
Forced : No

Text #4
ID : 6
Format : PGS
Muxing mode : zlib
Codec ID : S_HDMV/PGS
Codec ID/Info : Picture based subtitle format used on BDs/HD-DVDs
Duration : 2 h 1 min
Bit rate : 35.5 kb/s
Count of elements : 3078
Stream size : 30.7 MiB (1%)
Title : EN_PGS
Language : English
Default : No
Forced : No

DOWNLOAD


PART01 |||| PART02 |||| PART03 |||| PART04 |||| PART05

PART01 |||| PART02 |||| PART03 |||| PART04 |||| PART05

PART01 |||| PART02 |||| PART03 |||| PART04 |||| PART05

PART01 |||| PART02 |||| PART03 |||| PART04 |||| PART05

PART01 |||| PART02 |||| PART03 |||| PART04 |||| PART05



แจ้งหนังเสีย หรือโหลดไม่ได้ ทั้งลิ้งฟรีและ vip สามารถกดที่รูปด้านบนนี้ได้เลย

: Disable Comments
%d bloggers like this: