[MINI-HD] Happy New You (2019) แฮปปี้นิวยู แสบสนั่น ยันหว่าง [1080p] [Netflix] [พากย์ไทย 5.1] [บรรยายไทย + อังกฤษ] [เสียงไทย + ซับไทย] [PANDAFILE]

0

โหลดหนัง Happy New You (2019) แฮปปี้นิวยู แสบสนั่น ยันหว่าง 

Summary:

เรื่องย่อ Happy New You (2019) แฮปปี้นิวยู แสบสนั่น ยันหว่าง

สนั่น แสบ สิงห์ ก๊วนช่างแอร์ขี้เมาบ้านนอก ที่ชอบไปเนียนกินฟรีตาม งานบุญต่างๆ ไม่ว่าจะเป็นงานทำบุญบ้าน งานบวช งานแต่ง หรือแม้กระทั่ง งานศพ ทั้งสามคนไม่เคยพลาดที่จะไปสร้างความปั่นป่วน บางงานอาจจะรู้จัก เจ้าภาพบ้าง ไม่รู้จักบ้าง แต่ส่วนใหญ่จะหนักไปทางไม่รู้จักซะมากกว่า โดย ทั้งสามคนมีสโลแกนว่า “ซองไม่เคยใส่ แต่พร้อมให้ความบันเทิง” และความวุ่นวายก็เกิดขึ้น เมื่อชบา น้องสาวแท้ๆของสนั่น ที่กำลังคบ หาดูใจกับตี๋ หนุ่มหน้าใสที่ไปทำงานหาความมั่นคงที่กรุงเทพเพื่อเก็บเงิน มาแต่งงาน แต่ตี๋มีความลับปกปิดชบาไว้หลายอย่าง จนชบาต้องตามมาจับ พิรุธตี๋ถึงที่กรุงเทพ แถมยังมีก๊วนพี่ชายทั้งสามคนตามมาด้วย เพราะพวกเค้า ดันได้ยินชบาคุยกับตี๋ว่าที่คอนโดที่ตี๋พักอยู่จัดงานปีใหม่ มีคอนเสิร์ตโชว์ จากนักร้องและศิลปินมากมาย และที่สำคัญงานนี้มีบุฟเฟต์กินเลี้ยงฟรีซะด้วย เรื่องราวจะวุ่นวายมากแค่ไหน?!!

Complete name : [MINI-HD]_Happy.New.You.2019.1080p.NF.WEB-DL.EAC3.x264.One2loadup.com.mkv
Format : Matroska
Format version : Version 4
File size : 3.23 GiB
Duration : 1 h 46 min
Overall bit rate : 4 352 kb/s
Movie name : [MINI-HD]_Happy.New.You.2019.1080p.NF.WEB-DL.EAC3.x264.One2loadup.com
Encoded date : UTC 2020-07-29 23:23:54
Writing application : mkvmerge v48.0.0 (‘Fortress Around Your Heart’) 64-bit
Writing library : libebml v1.4.0 + libmatroska v1.6.0

Video
ID : 1
Format : AVC
Format/Info : Advanced Video Codec
Format profile : [email protected]
Format settings : CABAC / 5 Ref Frames
Format settings, CABAC : Yes
Format settings, ReFrames : 5 frames
Codec ID : V_MPEG4/ISO/AVC
Duration : 1 h 46 min
Bit rate : 3 605 kb/s
Width : 1 920 pixels
Height : 1 080 pixels
Display aspect ratio : 16:9
Frame rate mode : Variable
Frame rate : 24.000 FPS
Color space : YUV
Chroma subsampling : 4:2:0
Bit depth : 8 bits
Scan type : Progressive
Bits/(Pixel*Frame) : 0.072
Stream size : 2.67 GiB (83%)
Title : [MINI-HD]_Happy.New.You.2019.1080p.NF.WEB-DL.EAC3.x264.One2loadup.com
Writing library : x264 core 157
Encoding settings : cabac=1 / ref=5 / deblock=1:0:0 / analyse=0x3:0x113 / me=hex / subme=8 / psy=1 / psy_rd=1.00:0.00 / mixed_ref=1 / me_range=16 / chroma_me=1 / trellis=2 / 8x8dct=1 / cqm=0 / deadzone=21,11 / fast_pskip=1 / chroma_qp_offset=-2 / threads=9 / lookahead_threads=1 / sliced_threads=0 / nr=0 / decimate=1 / interlaced=0 / bluray_compat=0 / constrained_intra=0 / bframes=3 / b_pyramid=2 / b_adapt=1 / b_bias=0 / direct=3 / weightb=1 / open_gop=0 / weightp=2 / keyint=250 / keyint_min=24 / scenecut=40 / intra_refresh=0 / rc_lookahead=40 / rc=2pass / mbtree=1 / bitrate=3605 / ratetol=1.0 / qcomp=0.60 / qpmin=0 / qpmax=69 / qpstep=4 / cplxblur=20.0 / qblur=0.5 / vbv_maxrate=5407 / vbv_bufsize=7210 / nal_hrd=none / filler=0 / ip_ratio=1.40 / aq=1:1.00
Default : Yes
Forced : No

Audio
ID : 2
Format : E-AC-3
Format/Info : Enhanced AC-3
Commercial name : Dolby Digital Plus
Codec ID : A_EAC3
Duration : 1 h 46 min
Bit rate mode : Constant
Bit rate : 640 kb/s
Channel(s) : 6 channels
Channel layout : L R C LFE Ls Rs
Sampling rate : 48.0 kHz
Frame rate : 31.250 FPS (1536 SPF)
Compression mode : Lossy
Stream size : 487 MiB (15%)
Language : Thai
Service kind : Complete Main
Default : Yes
Forced : No

Text #1
ID : 3
Format : UTF-8
Codec ID : S_TEXT/UTF8
Codec ID/Info : UTF-8 Plain Text
Duration : 1 h 46 min
Bit rate : 180 b/s
Count of elements : 2547
Stream size : 140 KiB (0%)
Title : Thai SRT From Netflix
Language : Thai
Default : Yes
Forced : No

Text #2
ID : 4
Format : UTF-8
Codec ID : S_TEXT/UTF8
Codec ID/Info : UTF-8 Plain Text
Duration : 56 min 30 s
Bit rate : 0 b/s
Count of elements : 5
Stream size : 138 Bytes (0%)
Title : Thai SRT From Netflix Forced
Language : Thai
Default : No
Forced : No

Text #3
ID : 5
Format : UTF-8
Codec ID : S_TEXT/UTF8
Codec ID/Info : UTF-8 Plain Text
Duration : 1 h 43 min
Bit rate : 67 b/s
Count of elements : 2245
Stream size : 50.8 KiB (0%)
Title : English SRT
Language : English
Default : No
Forced : No

Text #4
ID : 6
Format : PGS
Muxing mode : zlib
Codec ID : S_HDMV/PGS
Codec ID/Info : Picture based subtitle format used on BDs/HD-DVDs
Duration : 1 h 46 min
Bit rate : 55.0 kb/s
Count of elements : 5094
Stream size : 41.7 MiB (1%)
Title : Thai PGS [Angsana]
Language : Thai
Default : No
Forced : No

Text #5
ID : 7
Format : PGS
Muxing mode : zlib
Codec ID : S_HDMV/PGS
Codec ID/Info : Picture based subtitle format used on BDs/HD-DVDs
Duration : 1 h 46 min
Bit rate : 55.0 kb/s
Count of elements : 5094
Stream size : 41.7 MiB (1%)
Title : Thai PGS [Angsana Yellow]
Language : Thai
Default : No
Forced : No

Text #6
ID : 8
Format : PGS
Muxing mode : zlib
Codec ID : S_HDMV/PGS
Codec ID/Info : Picture based subtitle format used on BDs/HD-DVDs
Duration : 1 h 46 min
Bit rate : 54.1 kb/s
Count of elements : 5094
Stream size : 41.0 MiB (1%)
Title : Thai PGS [Sarabun]
Language : Thai
Default : No
Forced : No

Text #7
ID : 9
Format : PGS
Muxing mode : zlib
Codec ID : S_HDMV/PGS
Codec ID/Info : Picture based subtitle format used on BDs/HD-DVDs
Duration : 1 h 46 min
Bit rate : 54.1 kb/s
Count of elements : 5094
Stream size : 41.0 MiB (1%)
Title : Thai PGS [Sarabun Yellow]
Language : Thai
Default : No
Forced : No

Text #8
ID : 10
Format : PGS
Muxing mode : zlib
Codec ID : S_HDMV/PGS
Codec ID/Info : Picture based subtitle format used on BDs/HD-DVDs
Duration : 1 h 43 min
Bit rate : 42.0 kb/s
Count of elements : 4490
Stream size : 31.0 MiB (1%)
Title : English PGS
Language : English
Default : No
Forced : No

DOWNLOAD


PART01 |||| PART02 |||| PART03 |||| PART04

PART01 |||| PART02 |||| PART03 |||| PART04

PART01 |||| PART02 |||| PART03 |||| PART04

PART01 |||| PART02 |||| PART03 |||| PART04

PART01 |||| PART02 |||| PART03 |||| PART04


Leave A Reply

อีเมล์ของคุณจะไม่แสดงให้เห็น Your email address will not be published.

%d bloggers like this: