[MINI-HD] Fearless Kungfu King (2020) จอมคนผงาดโลก [1080p] [พากย์ไทย 2.0 + เสียงจีน 2.0] [บรรยายไทยฝัง] [เสียงไทย + ซับไทยฝัง] [USERLOAD]

0

โหลดหนัง Fearless Kungfu King (2020) จอมคนผงาดโลก

Fearless Kungfu King (2020) 97min | Action | April 9, 2020 (China) Summary: When Huo Yuanjia was young and aggressive, he thought martial arts were the most important. When helping Nong Jinsun, a progressive youth escort the reformists, he gradually understood that ... Read all
Countries: ChinaLanguages: Chinese

เรื่องย่อ Fearless Kungfu King (2020) จอมคนผงาดโลก

เมื่อครั้งเยาว์วัย ฮั่วหยวนเจี่ย ยังเต็มไปด้วยความคึกคะนองและคิดว่าศิลปะการต่อสู้เป็นสิ่งสำคัญที่สุด แต่เมื่อผ่านเหตุการณ์การช่วยเหลือ จินชุน และสมาชิกเยาวชนหัวก้าวหน้าในการปฏิรูปประเทศเมื่อนั้นเขาจึงเข้าใจว่าประชาชนและประเทศคือสิ่งที่สำคัญเหนืออื่นใด และเพื่อที่จะปักหลักต่อสู้ในเทียนจิน ฮั่วหยวนเจี่ย จึงจำเป็นที่จะต้องเอาชนะหยวนถิงซาน 1 ในองครักษ์ประจำวังหลวงของราชสำนักของพระนางซูสีไทเฮา

Complete name : [MINI-HD]_Fearless.Kungfu.King.2020.1080p.BluRay.AC3.x264.One2loadup.com.mkv
Format : Matroska
Format version : Version 4
File size : 4.34 GiB
Duration : 1 h 31 min
Overall bit rate : 6 785 kb/s
Movie name : [MINI-HD]_Fearless.Kungfu.King.2020.1080p.BluRay.AC3.x264.One2loadup.com
Encoded date : UTC 2021-08-07 14:01:52
Writing application : mkvmerge v60.0.0 (‘Are We Copies?’) 64-bit
Writing library : libebml v1.4.2 + libmatroska v1.6.4
Cover : Yes
Attachments : cover

Video
ID : 1
Format : AVC
Format/Info : Advanced Video Codec
Format profile : [email protected]
Format settings : CABAC / 1 Ref Frames
Format settings, CABAC : Yes
Format settings, Reference : 1 frame
Format settings, GOP : M=1, N=25
Codec ID : V_MPEG4/ISO/AVC
Duration : 1 h 31 min
Bit rate mode : Constant
Bit rate : 6 526 kb/s
Width : 1 920 pixels
Height : 1 080 pixels
Display aspect ratio : 16:9
Frame rate mode : Constant
Frame rate : 29.970 (30000/1001) FPS
Color space : YUV
Chroma subsampling : 4:2:0
Bit depth : 8 bits
Scan type : Progressive
Bits/(Pixel*Frame) : 0.105
Stream size : 4.17 GiB (96%)
Title : [MINI-HD]_Fearless.Kungfu.King.2020.1080p.BluRay.AC3.x264.One2loadup.com
Language : Chinese
Default : Yes
Forced : No

Audio #1
ID : 2
Format : AAC LC
Format/Info : Advanced Audio Codec Low Complexity
Codec ID : A_AAC-2
Duration : 1 h 31 min
Bit rate : 64.0 kb/s
Channel(s) : 2 channels
Channel layout : L R
Sampling rate : 32.0 kHz
Frame rate : 31.250 FPS (1024 SPF)
Compression mode : Lossy
Stream size : 41.9 MiB (1%)
Title : Th.AAC.2.0
Language : Thai
Default : Yes
Forced : No

Audio #2
ID : 3
Format : AAC LC
Format/Info : Advanced Audio Codec Low Complexity
Codec ID : A_AAC-2
Duration : 1 h 31 min
Bit rate : 192 kb/s
Channel(s) : 2 channels
Channel layout : L R
Sampling rate : 44.1 kHz
Frame rate : 43.066 FPS (1024 SPF)
Compression mode : Lossy
Stream size : 128 MiB (3%)
Title : Chi.AAC.2.0:192kbs
Language : Chinese
Default : Yes
Forced : No

DOWNLOAD


PART01 |||| PART02 |||| PART03 |||| PART04 |||| PART05

PART01 |||| PART02 |||| PART03 |||| PART04 |||| PART05

PART01 |||| PART02 |||| PART03 |||| PART04 |||| PART05

PART01 |||| PART02 |||| PART03 |||| PART04 |||| PART05

PART01 |||| PART02 |||| PART03 |||| PART04 |||| PART05


Leave A Reply

อีเมล์ของคุณจะไม่แสดงให้เห็น Your email address will not be published.

%d bloggers like this: