[MINI-HD] Eternals (2021) ฮีโร่พลังเทพเจ้า [1080p] [พากย์ไทย 5.1 + เสียงอังกฤษ DTS] [บรรยายไทย + อังกฤษ] [เสียงไทย + ซับไทย] [USERLOAD]

10

โหลดหนัง Eternals (2021) ฮีโร่พลังเทพเจ้า

Eternals Action, Adventure, Fantasy, Sci-Fi | November 5, 2021 (United States) Summary: The saga of the Eternals, a race of immortal beings who lived on Earth and shaped its history and civilizations.
Countries: United StatesLanguages: English, American Sign Language, Marathi, Spanish, Sumerian, Latin, Greek, Ancient (to 1453)

เรื่องย่อ Eternals (2021) ฮีโร่พลังเทพเจ้า

ภาพยนตร์เรื่องล่าสุดจาก Marvel Studios ที่จะพาคุณไปพบกับทีมของเหล่าซูเปอร์ฮีโร่สุดทรงพลัง ของจักรวาลมาร์เวล “Eternals” มหากาพย์อันยาวนานของเหล่าเทพอมตะที่รวมตัวกันเพื่อปกป้องมวลมนุษย์จากศัตรูร้าย Eternals คือกลุ่มฮีโร่เผ่าพันธุ์อมตะจากดวงดาวอันไกลโพ้น ผู้มีพลังแห่งจักรวาล หรือ Cosmic Energy ที่อาศัยอยู่บนโลกมาหลายพันปีเพื่อปกป้องมนุษยชาติจากเหล่าเอเลียนผู้คุกคามนามว่า Deviants ครั้งนี้ Eternals ต้องกลับมารวมตัวกันอีกครั้งหลังได้รับการแจ้งเตือนจ าก Celestials ผู้สร้างจักรวาล ถึงภัยคุกคามของ Deviants ซึ่งเป็นผลพวงจากเหตุการณ์ดีดนิ้วของธานอส และเหล่า Avengers นั่นเอง!!!

Complete name : [MINI-HD]_Eternals.2021.1080p.WEBRip.DTS.x264.One2loadup.com.mkv
Format : Matroska
Format version : Version 4
File size : 4.44 GiB
Duration : 2 h 36 min
Overall bit rate : 4 067 kb/s
Movie name : [MINI-HD]_Eternals.2021.1080p.WEBRip.DTS.x264.One2loadup.com
Encoded date : UTC 2022-01-14 07:53:55
Writing application : mkvmerge v64.0.0 (‘Willows’) 64-bit
Writing library : libebml v1.4.2 + libmatroska v1.6.4
Cover : Yes
Attachments : cover

Video
ID : 1
Format : AVC
Format/Info : Advanced Video Codec
Format profile : [email protected]
Format settings : CABAC / 4 Ref Frames
Format settings, CABAC : Yes
Format settings, Reference : 4 frames
Codec ID : V_MPEG4/ISO/AVC
Duration : 2 h 36 min
Bit rate : 2 500 kb/s
Width : 1 920 pixels
Height : 804 pixels
Display aspect ratio : 2.40:1
Frame rate mode : Constant
Frame rate : 23.976 (23976/1000) FPS
Color space : YUV
Chroma subsampling : 4:2:0
Bit depth : 8 bits
Scan type : Progressive
Bits/(Pixel*Frame) : 0.068
Stream size : 2.73 GiB (61%)
Title : [MINI-HD]_Eternals.2021.1080p.WEBRip.DTS.x264.One2loadup.com
Writing library : x264 core 152 r2851M ba24899
Encoding settings : cabac=1 / ref=4 / deblock=1:-1:-1 / analyse=0x3:0x113 / me=umh / subme=9 / psy=1 / psy_rd=1.00:0.15 / mixed_ref=1 / me_range=24 / chroma_me=1 / trellis=2 / 8x8dct=1 / cqm=0 / deadzone=21,11 / fast_pskip=1 / chroma_qp_offset=-3 / threads=32 / lookahead_threads=4 / sliced_threads=0 / nr=0 / decimate=1 / interlaced=0 / bluray_compat=0 / constrained_intra=0 / bframes=3 / b_pyramid=2 / b_adapt=2 / b_bias=0 / direct=3 / weightb=1 / open_gop=0 / weightp=2 / keyint=250 / keyint_min=25 / scenecut=40 / intra_refresh=0 / rc_lookahead=50 / rc=2pass / mbtree=1 / bitrate=2500 / ratetol=1.0 / qcomp=0.60 / qpmin=0 / qpmax=69 / qpstep=4 / cplxblur=20.0 / qblur=0.5 / vbv_maxrate=31250 / vbv_bufsize=31250 / nal_hrd=none / filler=0 / ip_ratio=1.40 / aq=3:1.00
Language : English
Default : Yes
Forced : No

Audio #1
ID : 2
Format : DTS
Format/Info : Digital Theater Systems
Codec ID : A_DTS
Duration : 2 h 35 min
Bit rate mode : Constant
Bit rate : 1 323 kb/s
Channel(s) : 6 channels
Channel layout : C L R Ls Rs LFE
Sampling rate : 16.0 kHz
Frame rate : 15.625 FPS (1024 SPF)
Bit depth : 16 bits
Compression mode : Lossy
Delay relative to video : -43 ms
Stream size : 1.44 GiB (32%)
Title : English DTS
Language : English
Default : No
Forced : No

Audio #2
ID : 3
Format : E-AC-3
Format/Info : Enhanced AC-3
Commercial name : Dolby Digital Plus
Codec ID : A_EAC3
Duration : 2 h 35 min
Bit rate mode : Constant
Bit rate : 192 kb/s
Channel(s) : 6 channels
Channel layout : L R C LFE Ls Rs
Sampling rate : 48.0 kHz
Frame rate : 31.250 FPS (1536 SPF)
Compression mode : Lossy
Delay relative to video : -43 ms
Stream size : 214 MiB (5%)
Title : Thai 5.1 – Dolby Digital Plus
Language : Thai
Service kind : Complete Main
Default : Yes
Forced : No

Text #1
ID : 4
Format : PGS
Muxing mode : zlib
Codec ID : S_HDMV/PGS
Codec ID/Info : Picture based subtitle format used on BDs/HD-DVDs
Duration : 2 h 34 min
Bit rate : 24.0 kb/s
Count of elements : 3084
Stream size : 26.5 MiB (1%)
Title : English Forced
Language : English
Default : Yes
Forced : Yes

Text #2
ID : 5
Format : PGS
Muxing mode : zlib
Codec ID : S_HDMV/PGS
Codec ID/Info : Picture based subtitle format used on BDs/HD-DVDs
Duration : 2 h 35 min
Bit rate : 22.8 kb/s
Count of elements : 3332
Stream size : 25.3 MiB (1%)
Title : Thai
Language : Thai
Default : Yes
Forced : No

Text #3
ID : 6
Format : PGS
Muxing mode : zlib
Codec ID : S_HDMV/PGS
Codec ID/Info : Picture based subtitle format used on BDs/HD-DVDs
Duration : 2 h 34 min
Bit rate : 25.7 kb/s
Count of elements : 3570
Stream size : 28.3 MiB (1%)
Title : English
Language : English
Default : No
Forced : No

Text #4
ID : 7
Format : PGS
Muxing mode : zlib
Codec ID : S_HDMV/PGS
Codec ID/Info : Picture based subtitle format used on BDs/HD-DVDs
Duration : 2 h 34 min
Bit rate : 34.7 kb/s
Count of elements : 4422
Stream size : 38.3 MiB (1%)
Title : English SDH
Language : English
Default : No
Forced : No

Menu
02:25:44.369 : en:Credits

DOWNLOAD


PART01 |||| PART02 |||| PART03 |||| PART04 |||| PART05

PART01 |||| PART02 |||| PART03 |||| PART04 |||| PART05

PART01 |||| PART02 |||| PART03 |||| PART04 |||| PART05

PART01 |||| PART02 |||| PART03 |||| PART04 |||| PART05

PART01 |||| PART02 |||| PART03 |||| PART04 |||| PART05


10 Comments
  1. tttt says

    ไฟล์ชำรุดครับ

    1. Admin
      Admin says

      ชำรุดยังไงฮ๊ะ ไฟล์ไหน เชิฟไหนที่โหลดฮ๊ะ

  2. tttt says

    ไฟล์ชำรุดครับบบบบ

    1. Admin
      Admin says

      แจ้งรอบเดียวก็ได้เด้อ

  3. BBB TP says

    โหลดไม่ได้ ทุกไฟล์ ทุกเซิฟ ครับ,
    หลังจากกดคลิกที่ Human Verification แล้ว -> ในหน้าเว็บเพจใหม่ จะเกิดการ Error ขึ้นมา ตามข้อความดังนี้
    ” ไม่สามารถเข้าถึงเว็บไซต์นี้หน้าเว็บใน ข้ามลิ้ง อาจหยุดให้บริการชั่วคราวหรืออาจถูกย้ายไปยังที่อยู่เว็บใหม่อย่างถาวร ”
    ERR_HTTP2_PROTOCOL_ERROR

    คาดว่า ไฟล์หนังไม่ได้เสียหาย แต่ปัญหาอาจเกิดจากเว็บเพจนี้ ข้ามลิ้ง ที่เชื่อมต่อไปยังเว็บเพจอื่นๆ เกิดการ Error ขึ้นมา จึงทำให้ลิงค์อื่นๆ ถูกตัดขาดลงไปตั้งแต่ต้นทางแล้ว ครับ
    สุดท้าย คือ ไม่มีลิงค์ที่สามารถเชื่อมต่อไปยังหน้าเว็บเพจที่ให้กดโหลดหนังครับ
    ปล. คาดว่า หนังเรื่องอื่นๆ จะ Error เช่นกัน เพราะเป็นการ Error ที่เว็บเพจต้นทาง ข้ามลิ้ง ครับ

    1. Admin
      Admin says

      น่าจะเป็นบางช่วงเวลาฮ๊ะ เพราะเราเข้าไปเช็คบางทีก็ไม่มีปัญหาอะไร น่าจะเป็นช่วงที่ข้ามลิ้งมีกดเข้าไปเยอะเกินไปทำให้เชิฟล่มไปชั่วขณะ ฮ๊ะ ต้องขออภัยด้วยเด้อ แนะนำให้ลองกด ดูใหม่ว่าได้ไหมฮ๊ะ

  4. Mu says

    ผมแตกไฟล์ไม่ได้
    ผมลองแก้ตามที่เว็บบอกแต่ก็แตกไม่ได้
    ขึ้น insert a disk with this volume and press ok and tri again

    1. Admin
      Admin says

      ไม่ทราบว่าโหลดครบทุก part ยังฮ๊ะ หรือ ชื่อไฟล์เหมือนกันหรือไม่ แนะนำให้ตรวจสอบชื่อไฟล์ให้ตรงกัน ABC.part1.rar ABC.part2.rar … ABC.part5.rar

  5. Eskimo says

    ไฟล์หนังไม่สามารถเลือกเสียงอังกฤษ DTS ได้ครับฟังได้แต่เสียงไทย

    1. Admin
      Admin says

      แนะนำใช้โปรแกรม VLC ในการเปิดดูฮ๊ะ

Leave A Reply

อีเมล์ของคุณจะไม่แสดงให้เห็น Your email address will not be published.

%d bloggers like this: