[MINI-HD] Enchanted (2007) มหัศจรรย์รักข้ามภพ [1080p] [พากย์ไทย 5.1 + เสียงอังกฤษ 5.1] [บรรยายไทย + อังกฤษ] [เสียงไทย + ซับไทย] [PANDAFILE]

0

โหลดหนัง Enchanted (2007) มหัศจรรย์รักข้ามภพ

Enchanted (2007) 1h 47min | Animation, Comedy, Family | 21 November 2007 (USA) Summary: A young maiden in a land called Andalasia, who is prepared to be wed, is sent away to New York City by an evil Queen, where she falls in love with a lawyer.
Countries: USALanguages: English

เรื่องย่อ Enchanted (2007) มหัศจรรย์รักข้ามภพ

จากเรื่องราวในเทพนิยายสุดคลาสสิกของดิสนีย์ ย้ายมาสู่มหานครนิวยอร์กสุดโมเดิร์น เรื่องราวของเจ้าหญิงในเทพนิยาย จีเซล (เอมี่ อดัมส์) ที่โดนสาปส่งโดย ราชินีนาริสซ่า ผู้ชั่วร้าย (ซูซาน ซาแรนดอน) จากดินแดนในเทพนิยายมาสู่โลกในปัจจุบัน หลังจากที่จีเซลมาถึงโลกได้ไม่นาน เธอก็พบกับสิ่งที่เปลี่ยนแปลงชีวิตและความรักของเธอ เมื่อเธอพบกับ โรเบิร์ต (แพททริค เดมพ์ซี่ย์) ทนายหนุ่มรูปหล่อพ่อลูกติด ที่ช่วยเหลือเธอให้รอดพ้นจากค่ำคืนที่สาหัสในนิวยอร์ กเอาไว้ แต่ไม่เพียงเท่านั้นเมื่อ เจ้าชายเอ็ดเวิร์ด (เจมส์ มาร์เด้นส์) แห่งโลกเทพนิยาย ทราบข่าวของเจ้าหญิงจีเซลที่หายตัวไป จึงรีบตรงมาสู่โลกปัจจุบัน เพื่อตามหาเจ้าหญิงกลับบ้านในเทพนิยาย จากเรื่องราวแสนสุขในเทพนิยาย กลับกลายเป็นเรื่องป่วนทั่วทั้งนิวยอร์ก เมื่อราชินีผู้ชั่วร้ายรู้ว่าเจ้าหญิงจีเซลยังไม่ตาย เธอจึงมาสู่นิวยอร์กพร้อมกับเวท์มนตร์อันชั่วร้ายหวังกำจัดจีเซลไปให้สิ้นซาก

Complete name : [MINI-HD]_Enchanted.2007.1080p.BluRay.AC3.x264.One2loadup.com.mkv
Format : Matroska
Format version : Version 4
File size : 2.36 GiB
Duration : 1 h 47 min
Overall bit rate : 3 143 kb/s
Movie name : [MINI-HD]_Enchanted.2007.1080p.BluRay.AC3.x264.One2loadup.com
Encoded date : UTC 2014-02-16 06:48:54
Writing application : mkvmerge v6.0.0 (‘Coming Up For Air’) built on Jan 20 2013 09:52:00
Writing library : libebml v1.3.0 + libmatroska v1.4.0

Video
ID : 1
Format : AVC
Format/Info : Advanced Video Codec
Format profile : [email protected]
Format settings : CABAC / 4 Ref Frames
Format settings, CABAC : Yes
Format settings, ReFrames : 4 frames
Codec ID : V_MPEG4/ISO/AVC
Duration : 1 h 47 min
Bit rate : 2 230 kb/s
Width : 1 920 pixels
Height : 816 pixels
Display aspect ratio : 2.35:1
Frame rate mode : Constant
Frame rate : 23.976 (24000/1001) FPS
Color space : YUV
Chroma subsampling : 4:2:0
Bit depth : 8 bits
Scan type : Progressive
Bits/(Pixel*Frame) : 0.059
Stream size : 1.69 GiB (72%)
Title : [MINI-HD]_Enchanted.2007.1080p.BluRay.AC3.x264.One2loadup.com
Writing library : x264 core 128 r2216 198a7ea
Encoding settings : cabac=1 / ref=3 / deblock=1:-1:-1 / analyse=0x3:0x133 / me=umh / subme=10 / psy=1 / psy_rd=1.00:0.15 / mixed_ref=1 / me_range=24 / chroma_me=1 / trellis=2 / 8x8dct=1 / cqm=0 / deadzone=21,11 / fast_pskip=1 / chroma_qp_offset=-3 / threads=18 / lookahead_threads=3 / sliced_threads=0 / nr=0 / decimate=1 / interlaced=0 / bluray_compat=0 / constrained_intra=0 / bframes=3 / b_pyramid=2 / b_adapt=2 / b_bias=0 / direct=3 / weightb=1 / open_gop=0 / weightp=2 / keyint=250 / keyint_min=23 / scenecut=40 / intra_refresh=0 / rc_lookahead=60 / rc=2pass / mbtree=1 / bitrate=2230 / ratetol=1.0 / qcomp=0.60 / qpmin=0 / qpmax=69 / qpstep=4 / cplxblur=20.0 / qblur=0.5 / vbv_maxrate=25000 / vbv_bufsize=25000 / nal_hrd=none / ip_ratio=1.40 / aq=1:1.00
Language : English
Default : Yes
Forced : Yes

Audio #1
ID : 2
Format : AC-3
Format/Info : Audio Coding 3
Commercial name : Dolby Digital
Codec ID : A_AC3
Duration : 1 h 47 min
Bit rate mode : Constant
Bit rate : 384 kb/s
Channel(s) : 6 channels
Channel layout : L R C LFE Ls Rs
Sampling rate : 48.0 kHz
Frame rate : 31.250 FPS (1536 SPF)
Bit depth : 16 bits
Compression mode : Lossy
Stream size : 295 MiB (12%)
Title : TH 5.1
Language : Thai
Service kind : Complete Main
Default : Yes
Forced : Yes

Audio #2
ID : 3
Format : AC-3
Format/Info : Audio Coding 3
Commercial name : Dolby Digital
Codec ID : A_AC3
Duration : 1 h 47 min
Bit rate mode : Constant
Bit rate : 448 kb/s
Channel(s) : 6 channels
Channel layout : L R C LFE Ls Rs
Sampling rate : 48.0 kHz
Frame rate : 31.250 FPS (1536 SPF)
Bit depth : 16 bits
Compression mode : Lossy
Stream size : 344 MiB (14%)
Title : EN 5.1
Language : English
Service kind : Complete Main
Default : No
Forced : No

Text #1
ID : 4
Format : VobSub
Codec ID : S_VOBSUB
Codec ID/Info : Picture based subtitle format used on DVDs
Title : TH DVD
Language : Thai
Default : No
Forced : No

Text #2
ID : 5
Format : VobSub
Codec ID : S_VOBSUB
Codec ID/Info : Picture based subtitle format used on DVDs
Title : TH 480P
Language : Thai
Default : No
Forced : No

Text #3
ID : 6
Format : VobSub
Codec ID : S_VOBSUB
Codec ID/Info : Picture based subtitle format used on DVDs
Title : TH 1080P
Language : Thai
Default : Yes
Forced : Yes

Text #4
ID : 7
Format : UTF-8
Codec ID : S_TEXT/UTF8
Codec ID/Info : UTF-8 Plain Text
Title : EN SRT
Language : English
Default : No
Forced : No

Text #5
ID : 8
Format : UTF-8
Codec ID : S_TEXT/UTF8
Codec ID/Info : UTF-8 Plain Text
Title : TH OCR
Language : Thai
Default : No
Forced : No

Text #6
ID : 9
Format : PGS
Codec ID : S_HDMV/PGS
Codec ID/Info : Picture based subtitle format used on BDs/HD-DVDs
Title : TH PGS
Language : Thai
Default : No
Forced : No

Text #7
ID : 10
Format : PGS
Codec ID : S_HDMV/PGS
Codec ID/Info : Picture based subtitle format used on BDs/HD-DVDs
Title : TH PGS UNDER
Language : Thai
Default : No
Forced : No

Menu
00:00:00.000 : en:00:00:00.000
00:04:16.298 : en:00:04:16.298
00:08:01.815 : en:00:08:01.815
00:13:04.867 : en:00:13:04.867
00:17:36.430 : en:00:17:36.430
00:23:25.404 : en:00:23:25.404
00:28:21.700 : en:00:28:21.700
00:34:03.291 : en:00:34:03.291
00:40:17.707 : en:00:40:17.707
00:45:24.096 : en:00:45:24.096
00:52:36.028 : en:00:52:36.028
00:57:06.381 : en:00:57:06.381
01:07:40.056 : en:01:07:40.056
01:12:46.112 : en:01:12:46.112
01:16:53.817 : en:01:16:53.817
01:20:23.402 : en:01:20:23.402
01:24:06.166 : en:01:24:06.166
01:26:43.365 : en:01:26:43.365
01:32:31.212 : en:01:32:31.212
01:39:05.898 : en:01:39:05.898

DOWNLOAD


PART01 |||| PART02 |||| PART03

PART01 |||| PART02 |||| PART03

PART01 |||| PART02 |||| PART03

PART01 |||| PART02 |||| PART03

PART01 |||| PART02 |||| PART03



แจ้งหนังเสีย หรือโหลดไม่ได้ ทั้งลิ้งฟรีและ vip สามารถกดที่รูปด้านบนนี้ได้เลย

: Disable Comments
%d bloggers like this: