[MINI-HD] Dope (2015) โด๊ป [1080p] [พากย์ไทย 2.0 + เสียงอังกฤษ DTS] [บรรยายไทย + อังกฤษ] [เสียงไทย + ซับไทย] [DOSYAUPLOAD]

0

โหลดหนัง Dope (2015) โด๊ป

Dope (2015) 1h 43min | Comedy, Crime, Drama | 19 June 2015 (USA) Summary: Life changes for Malcolm, a geek who's surviving life in a tough neighborhood, after a chance invitation to an underground party leads him and his friends into a Los Angeles adventure.
Countries: USALanguages: English, Spanish

เรื่องย่อ Dope (2015) โด๊ป

Dope เป็นเรื่องราวของ มัลค่อม เด็กหนุ่มผู้หลงรักในเพลงฮิปฮอปยุค 90 ที่ตัวเขานั่นฝันว่าอยากจะใช้ชีวิตราบรื่นกับเพื่อนๆ ในฮาวาร์ดแต่ความฝันของพวกเขาไม่ง่ายขนาดนั้น เมื่อได้มีพ่อค้ายามาสนใจในตัวมัลค่อม และชวนไปร่วมวงการจากงานปาร์ตี้ในคืนนึงจึงทำให้เขาต้องเริ่มตั้งคำถามถึงชีวิตอีกครั้งว่าจะเหลวแหลกอยู่แบบนี้ หรือจะมุ่งหน้าไปสู่อนาคตที่ฝันไว้กันแน่!!!

Complete name : [MINI-HD]_Dope.2015.1080p.BluRay.DTS.x264.One2loadup.com.mkv
Format : Matroska
Format version : Version 4
File size : 7.75 GiB
Duration : 1 h 43 min
Overall bit rate : 10.7 Mb/s
Movie name : [MINI-HD]_Dope.2015.1080p.BluRay.DTS.x264.One2loadup.com
Encoded date : UTC 2021-01-12 03:10:41
Writing application : mkvmerge v51.0.0 (‘I Wish’) 64-bit
Writing library : libebml v1.4.0 + libmatroska v1.6.2

Video
ID : 1
Format : AVC
Format/Info : Advanced Video Codec
Format profile : [email protected]
Format settings : CABAC / 5 Ref Frames
Format settings, CABAC : Yes
Format settings, ReFrames : 5 frames
Codec ID : V_MPEG4/ISO/AVC
Duration : 1 h 43 min
Bit rate : 9 094 kb/s
Width : 1 920 pixels
Height : 800 pixels
Display aspect ratio : 2.40:1
Frame rate mode : Constant
Frame rate : 23.976 FPS
Color space : YUV
Chroma subsampling : 4:2:0
Bit depth : 8 bits
Scan type : Progressive
Bits/(Pixel*Frame) : 0.247
Stream size : 6.56 GiB (85%)
Title : [MINI-HD]_Dope.2015.1080p.BluRay.DTS.x264.One2loadup.com
Writing library : x264 core 148 r2597 e86f3a1
Encoding settings : cabac=1 / ref=5 / deblock=1:0:0 / analyse=0x3:0x133 / me=umh / subme=7 / psy=1 / psy_rd=1.00:0.00 / mixed_ref=1 / me_range=16 / chroma_me=1 / trellis=1 / 8x8dct=1 / cqm=0 / deadzone=21,11 / fast_pskip=0 / chroma_qp_offset=-2 / threads=18 / lookahead_threads=3 / sliced_threads=0 / nr=0 / decimate=1 / interlaced=0 / bluray_compat=0 / constrained_intra=0 / bframes=3 / b_pyramid=2 / b_adapt=1 / b_bias=0 / direct=1 / weightb=1 / open_gop=0 / weightp=2 / keyint=250 / keyint_min=23 / scenecut=40 / intra_refresh=0 / rc_lookahead=40 / rc=2pass / mbtree=1 / bitrate=9094 / ratetol=1.0 / qcomp=0.60 / qpmin=0 / qpmax=69 / qpstep=4 / cplxblur=20.0 / qblur=0.5 / ip_ratio=1.40 / aq=1:1.00
Language : English
Default : Yes
Forced : No

Audio #1
ID : 2
Format : DTS
Format/Info : Digital Theater Systems
Codec ID : A_DTS
Duration : 1 h 43 min
Bit rate mode : Constant
Bit rate : 1 509 kb/s
Channel(s) : 6 channels
Channel layout : C L R Ls Rs LFE
Sampling rate : 48.0 kHz
Frame rate : 93.750 FPS (512 SPF)
Bit depth : 24 bits
Compression mode : Lossy
Stream size : 1.09 GiB (14%)
Language : English
Default : No
Forced : No

Audio #2
ID : 3
Format : AAC LC
Format/Info : Advanced Audio Codec Low Complexity
Codec ID : A_AAC-2
Duration : 1 h 43 min
Bit rate : 132 kb/s
Channel(s) : 2 channels
Channel layout : L R
Sampling rate : 44.1 kHz
Frame rate : 43.066 FPS (1024 SPF)
Compression mode : Lossy
Stream size : 96.0 MiB (1%)
Title : SRT
Language : Thai
Default : Yes
Forced : No

Text #1
ID : 4
Format : UTF-8
Codec ID : S_TEXT/UTF8
Codec ID/Info : UTF-8 Plain Text
Duration : 1 h 37 min
Bit rate : 129 b/s
Count of elements : 1327
Stream size : 92.0 KiB (0%)
Language : Thai
Default : Yes
Forced : No

Text #2
ID : 5
Format : VobSub
Muxing mode : zlib
Codec ID : S_VOBSUB
Codec ID/Info : Picture based subtitle format used on DVDs
Duration : 1 h 41 min
Bit rate : 15.4 kb/s
Count of elements : 2085
Stream size : 11.2 MiB (0%)
Language : English
Default : No
Forced : No

Menu
00:00:00.000 : en:00:00:00.000
00:06:04.072 : en:00:06:04.072
00:09:34.532 : en:00:09:34.532
00:15:05.363 : en:00:15:05.363
00:19:57.405 : en:00:19:57.405
00:24:38.977 : en:00:24:38.977
00:27:59.678 : en:00:27:59.678
00:32:43.503 : en:00:32:43.503
00:37:22.782 : en:00:37:22.782
00:41:45.253 : en:00:41:45.253
00:46:18.025 : en:00:46:18.025
00:52:19.511 : en:00:52:19.511
00:59:15.427 : en:00:59:15.427
01:04:28.823 : en:01:04:28.823
01:09:18.654 : en:01:09:18.654
01:14:49.110 : en:01:14:49.110
01:20:27.031 : en:01:20:27.031
01:25:07.144 : en:01:25:07.144
01:31:30.819 : en:01:31:30.819
01:38:09.133 : en:01:38:09.133

DOWNLOAD


PART01 |||| PART02 |||| PART03 |||| PART04 |||| PART05 |||| PART06

PART01 |||| PART02 |||| PART03 |||| PART04 |||| PART05 |||| PART06

PART01 |||| PART02 |||| PART03 |||| PART04 |||| PART05 |||| PART06

PART01 |||| PART02 |||| PART03 |||| PART04 |||| PART05 |||| PART06

PART01 |||| PART02 |||| PART03 |||| PART04 |||| PART05 |||| PART06



แจ้งหนังเสีย หรือโหลดไม่ได้ ทั้งลิ้งฟรีและ vip สามารถกดที่รูปด้านบนนี้ได้เลย

: Disable Comments
%d bloggers like this: